\m/ 80's metal \m/

Информационно-аналитический форум "80 см пыли" (In Search We Trust) "У нас никто никуда не спешит"
Me For You - http://me-4u.com
It is currently 18 Oct 2018

All times are UTC + 3 hours

Spoiler
Chat - temporary registration for foreign users (please leave your application here)







Post new topic Reply to topic  [ 10 posts ] 
Author Message
 
PostPosted: 27 Dec 2009 
Old Time Rock`n`Roll
User avatar
Joined: 23 Jun 2008
Posts: 3356
Lоcаtion: г.Ульяновск
Age: 40
Name: Константин
Black Tears – Child Of The Storm (1984) – vinyl/flac

Image

Year: 1984
Style: Traditional Heavy Metal, Hard`n`Heavy
Country: Germany
Format: FLAC + log + cue,no scans & mp3-320
Size: 230 Mb / 74 Mb

Tracklist
1. Black Tears 04:24
2. Crown of the Damned 05:00
3. Perfect Demon 03:39
4. Silver Woman 03:44
5. Child of the Storm 03:48
6. Rockin' To the Top 03:21
7. Dialog Between the Evil and the Good 03:10
8. Only Memories 05:32

TPT – 32:30

Line-Up
Mathias Staub — Vocals
Peter Kohler — Guitars
Uwe Kohler — Bass
Bjorn Greinert — Drums

Log
Exact Audio Copy V0.99 prebeta 4 from 23. January 2008

EAC extraction logfile from 11. July 2009, 14:40

Black Tears / Child Of The Storm

Used drive : NOF J0LMJCP67GLY Adapter: 3 ID: 0

Read mode : Secure
Utilize accurate stream : Yes
Defeat audio cache : Yes
Make use of C2 pointers : No

Read offset correction : 0
Overread into Lead-In and Lead-Out : No
Fill up missing offset samples with silence : Yes
Delete leading and trailing silent blocks : No
Null samples used in CRC calculations : Yes
Used interface : Native Win32 interface for Win NT & 2000

Used output format : User Defined Encoder
Selected bitrate : 32 kBit/s
Quality : High
Add ID3 tag : No
Command line compressor : C:\Program Files\Exact Audio Copy\Flac\flac.exe
Additional command line options : -6 -V %s


TOC of the extracted CD

Track | Start | Length | Start sector | End sector
---------------------------------------------------------
1 | 0:00.00 | 4:24.04 | 0 | 19803
2 | 4:24.04 | 4:59.59 | 19804 | 42287
3 | 9:23.63 | 3:39.00 | 42288 | 58712
4 | 13:02.63 | 3:42.18 | 58713 | 75380
5 | 16:45.06 | 3:47.17 | 75381 | 92422
6 | 20:32.23 | 3:21.12 | 92423 | 107509
7 | 23:53.35 | 3:09.53 | 107510 | 121737
8 | 27:03.13 | 5:26.61 | 121738 | 146248


Range status and errors

Selected range

Filename K:\metalmadness\Black Tears - Child Of The Storm.wav

Peak level 98.8 %
Range quality 100.0 %
Copy CRC 0CE5E223
Copy OK

No errors occurred

End of status report


Cue
REM GENRE "Heavy Metal"
REM DATE 1984
REM DISCID 60079D08
REM COMMENT "ExactAudioCopy v0.99pb4"
PERFORMER "Black Tears"
TITLE "Child Of The Storm"
FILE "Black Tears - Child Of The Storm.flac" WAVE
TRACK 01 AUDIO
TITLE "Black Tears"
PERFORMER "Black Tears"
INDEX 01 00:00:00
TRACK 02 AUDIO
TITLE "Crown Of The Damned"
PERFORMER "Black Tears"
INDEX 00 04:22:04
INDEX 01 04:24:04
TRACK 03 AUDIO
TITLE "Perfect Demon"
PERFORMER "Black Tears"
INDEX 00 09:21:63
INDEX 01 09:23:63
TRACK 04 AUDIO
TITLE "Silver Woman"
PERFORMER "Black Tears"
INDEX 00 13:00:63
INDEX 01 13:02:63
INDEX 02 16:11:26
TRACK 05 AUDIO
TITLE "Child Of The Storm"
PERFORMER "Black Tears"
INDEX 00 16:43:06
INDEX 01 16:45:06
TRACK 06 AUDIO
TITLE "Rockin' To The Top"
PERFORMER "Black Tears"
INDEX 00 20:30:23
INDEX 01 20:32:23
TRACK 07 AUDIO
TITLE "Dialog Between The Evil And The Good"
PERFORMER "Black Tears"
INDEX 00 23:51:35
INDEX 01 23:53:35
TRACK 08 AUDIO
TITLE "Only Memories"
PERFORMER "Black Tears"
INDEX 00 27:01:13
INDEX 01 27:03:13


FLAC
FLAC

mp3-320
megaupload-320

Релиз с ММТ, автор рипа – Speedica. Сканов нет, в сети ничего найти не удалось, одни огрызки наподобие выложенного.
Хэви с немного нестандартной ритмикой барабанов и чуть менее скоростной нежели обычный традиционный немецкий метал. Помимо типичного влияния Accept и Judas Priest, можно заметить следы Twisted Sister – Krokus образца 1983 г. – AC/DC. Хорошая работа. :dance:

Image


Last edited by oldrocker on 30 May 2013, edited 1 time in total.

Top
 Profile  
 
 
PostPosted: 27 Dec 2009 
Работнечег
User avatar
Joined: 28 Aug 2007
Posts: 5465
Lоcаtion: г. Москва
Age: 29
Name: Дима
Спасибо! Насколько помнится действительно хорошая работа! :thanx:


Top
 Profile E-mail  
 
 
PostPosted: 28 Dec 2009 
Почётный металлург
User avatar
Joined: 15 Sep 2007
Posts: 4357
Lоcаtion: Хабаровск
Age: 58
Name: чуть выше
:thanx:

_________________
Коль будешь людей ты ослами честить,
тебе человеком меж них не прослыть!
(Саади, персидский поэт, 13в.)


Top
 Profile  
 
 
PostPosted: 02 Jan 2010 
Персональный статус
User avatar
Joined: 16 Jul 2008
Posts: 222
Lоcаtion: Киров
Age: 29
Name: Олег
:thanx: Действительно, хорошая вещь!


Top
 Profile  
 
 
PostPosted: 30 May 2013 
Доктор энтомологии
User avatar
Joined: 22 Jan 2009
Posts: 9380
Lоcаtion: Даугавпилс
Age: 43
Name: Алексей
картиночка альбомная хороша :pray:
Image


Top
 Profile  
 
 
PostPosted: 30 May 2013 
Хиппей (support team)
User avatar
Joined: 30 Jul 2007
Posts: 106969
Lоcаtion: Киев (Kyiv, UA)
Age: 45
Name: Andrey
Ога, обложка хороша :true:
А во лосик исдох :esel: Оживите, плиз, кто имеет :thanx:

_________________


Top
 Profile E-mail  
 
 
PostPosted: 30 May 2013 
Old Time Rock`n`Roll
User avatar
Joined: 23 Jun 2008
Posts: 3356
Lоcаtion: г.Ульяновск
Age: 40
Name: Константин
Обновил ссылку.
Прогноз на прослушку альбома - альбом хороший, понравится, оценка - 7/10. Быть может даже 7+.


Top
 Profile  
 
 
PostPosted: 30 May 2013 
Я набрал 1000 сообщений!
Joined: 24 Oct 2009
Posts: 2057
Lоcаtion: Оренбург
Age: 55
Name: Юра
Идета, я эту картиночку уже видал... :umnik:

_________________
:dash: I am happy!


Top
 Profile E-mail  
 
 
PostPosted: 30 May 2013 
Хиппей (support team)
User avatar
Joined: 30 Jul 2007
Posts: 106969
Lоcаtion: Киев (Kyiv, UA)
Age: 45
Name: Andrey
Обновил ссылку.
Прогноз на прослушку альбома - альбом хороший, понравится, оценка - 7/10. Быть может даже 7+.

:crazy: viewtopic.php?p=6498#p6498

Костя, спасибо! :thanx:

_________________


Top
 Profile E-mail  
 
 
PostPosted: 30 May 2013 
Хиппей (support team)
User avatar
Joined: 30 Jul 2007
Posts: 106969
Lоcаtion: Киев (Kyiv, UA)
Age: 45
Name: Andrey
Ну и для любителей "кристалльно чистого звука с CD". Бутлежного http://rutracker.org/forum/viewtopic.php?t=3511691
Димитар уже давно обозвал этот звук... эээ... в общем, назвал хорошим.

_________________


Top
 Profile E-mail  
 
Display posts from previous:  Sort by  
Post new topic Reply to topic  [ 10 posts ] 

All times are UTC + 3 hours


Who is online

Users browsing this forum: No registered users and 2 guests


You cannot post new topics in this forum
You cannot reply to topics in this forum
You cannot edit your posts in this forum
You cannot delete your posts in this forum
You cannot post attachments in this forum

Search for:
Яндекс.Метрика
Powered by phpBB © 2000, 2002, 2005, 2007 phpBB Group