\m/ 80's metal \m/

Информационно-аналитический форум "80 см пыли" (In Search We Trust) "У нас никто никуда не спешит"
Me For You - http://me-4u.com
It is currently 11 Dec 2018

All times are UTC + 3 hours

Spoiler
Chat - temporary registration for foreign users (please leave your application here)







Post new topic Reply to topic  [ 8 posts ] 
Author Message
 
PostPosted: 15 Dec 2009 
Old Time Rock`n`Roll
User avatar
Joined: 23 Jun 2008
Posts: 3369
Lоcаtion: г.Ульяновск
Age: 40
Name: Константин
Bang Gang – Love Sells (1990)

Image

Year: 1990
Style: Glam/Hard Rock
Country: USA
Format: APE + log + cue + scans & mp3-320
Size: 250 Mb / 83 Mb

Tracklist
01. Pedal To The Metal (4:25)
02. 20th Century Boy (4:27)
03. The Neon Fairytale (3:28)
04. Young And Restless (4:35)
05. You Make The Beat Go On (4:07)
06. Be A Model (Or Just Look Like One) (3:23)
07. Dangerous (3:49)
08. Thrill After Thrill (4:03)
09. B.M.G. (2:30)

TPT – 36:02

Line-Up
Achon, Inc. - Drums
Jet Silver - Lead Vocals
K.J. Kristofersen - Guitars
Scott Earl - Bass
Scotti Stevens – Guitars

Album Credits:
Produced: Ryan Dorn/Scott Earl # 1,2,4,7,9,
Produced: Simon Hanhart/Bang Gang # 3,5,6,8

Log
EAC extraction logfile from 27. October 2005, 13:17 for CD
The Bang Gang / Love Sells

Used drive : HL-DT-STDVDRAM GSA-4120B Adapter: 1 ID: 0
Read mode : Secure with NO C2, accurate stream, disable cache
Read offset correction : 667
Overread into Lead-In and Lead-Out : No

Used output format : Internal WAV Routines
44.100 Hz; 16 Bit; Stereo

Other options :
Fill up missing offset samples with silence : Yes
Delete leading and trailing silent blocks : No
Installed external ASPI interface


Range status and errors
Selected range
Filename C:\Temp\Cd\To Share\Next Releases\Bang Gang - Love Sells (1990) [Eac-Ape]\The Bang Gang - Love Sells.wav

Peak level 100.0 %
Range quality 100.0 %
CRC 9F5F2F6C
Copy OK

No errors occured

End of status report


Cue
REM DISCID 63087109
REM COMMENT "ExactAudioCopy v0.95b3"
PERFORMER "The Bang Gang"
TITLE "Love Sells"
FILE "The Bang Gang - Love Sells.wav" WAVE
TRACK 01 AUDIO
TITLE "Pedal To The Metal"
PERFORMER "The Bang Gang"
INDEX 01 00:00:00
TRACK 02 AUDIO
TITLE "20th Century Boy"
PERFORMER "The Bang Gang"
INDEX 00 04:24:67
INDEX 01 04:25:40
TRACK 03 AUDIO
TITLE "The Neon Fairytale"
PERFORMER "The Bang Gang"
INDEX 01 08:52:55
TRACK 04 AUDIO
TITLE "Young & The Restless"
PERFORMER "The Bang Gang"
INDEX 00 12:21:67
INDEX 01 12:22:62
TRACK 05 AUDIO
TITLE "You Make The Beat Go On"
PERFORMER "The Bang Gang"
INDEX 00 16:57:17
INDEX 01 16:59:07
TRACK 06 AUDIO
TITLE "Be A Model (Or Just Look Like One)"
PERFORMER "The Bang Gang"
INDEX 00 22:03:42
INDEX 01 22:05:32
TRACK 07 AUDIO
TITLE "Dangerous"
PERFORMER "The Bang Gang"
INDEX 00 25:30:42
INDEX 01 25:32:27
TRACK 08 AUDIO
TITLE "Thrill After Thrill"
PERFORMER "The Bang Gang"
INDEX 01 29:21:15
TRACK 09 AUDIO
TITLE "B.M.G. (Be My Girl)"
PERFORMER "The Bang Gang"
INDEX 01 33:24:27


APE
narod-APE

mp3-320
megaupload-320

Релиз с WWR, автор рипа – Sapo Malo.
Основу группы составили бывшие участкники TKO - K.J. Kristofersen и Scott Earl.

Image


Top
 Profile  
 
 
PostPosted: 17 Dec 2009 
хард н хэвщик (support team)
User avatar
Joined: 02 Jun 2008
Posts: 16880
Lоcаtion: Н.Новгород
Age: 31
Name: Артем
что-то мне по фотке подумалось, что ребята сильно хотят любви... :crazy: Army of lovers блин


Top
 Profile  
 
 
PostPosted: 30 Sep 2011 
Хиппей (support team)
User avatar
Joined: 30 Jul 2007
Posts: 108817
Lоcаtion: Киев (Kyiv, UA)
Age: 45
Name: Andrey
:thanx:

Ожидал намного худшего :nunu:
На самом деле оказался приятный и окультуренный глэм-хард с прикольным вокалом. Хотя, он в глэме именно таким мяукающим и смазливым должен быть :meloman:
Музыка веселая, после третьего прослушивания уже отличаешь трэки друго от друга и даже замечаешь хиты :dance:

Сам от себя не ожидал, но это пять :crazy: :true:

5+/10

зы. Ссылка будет обновлена как только петух жареный клюнет копчёного гуся в печень :mabila:

_________________


Top
 Profile E-mail  
 
 
PostPosted: 01 Oct 2011 
хард н хэвщик (support team)
User avatar
Joined: 02 Jun 2008
Posts: 16880
Lоcаtion: Н.Новгород
Age: 31
Name: Артем
ахтунговые музыканты :fingal:


Top
 Profile  
 
 
PostPosted: 01 Oct 2011 
Хиппей (support team)
User avatar
Joined: 30 Jul 2007
Posts: 108817
Lоcаtion: Киев (Kyiv, UA)
Age: 45
Name: Andrey
В натуре? :shok: Или по приколу...? :vic:

_________________


Top
 Profile E-mail  
 
 
PostPosted: 01 Oct 2011 
хард н хэвщик (support team)
User avatar
Joined: 02 Jun 2008
Posts: 16880
Lоcаtion: Н.Новгород
Age: 31
Name: Артем
судя по фотке :pardon:


Top
 Profile  
 
 
PostPosted: 01 Oct 2011 
Хиппей (support team)
User avatar
Joined: 30 Jul 2007
Posts: 108817
Lоcаtion: Киев (Kyiv, UA)
Age: 45
Name: Andrey
Тьху. А я вчерась облазил всю историю группы, разыскивая порочные связи между участниками :crazy:

Нинашол компромата. А прикид как и у большинства глэмстеров - вызывающий :pardon:

_________________


Top
 Profile E-mail  
 
 
PostPosted: 01 Oct 2011 
Хиппей (support team)
User avatar
Joined: 30 Jul 2007
Posts: 108817
Lоcаtion: Киев (Kyiv, UA)
Age: 45
Name: Andrey
mirror: MultiUp l Narod

_________________


Top
 Profile E-mail  
 
Display posts from previous:  Sort by  
Post new topic Reply to topic  [ 8 posts ] 

All times are UTC + 3 hours


Who is online

Users browsing this forum: No registered users and 3 guests


You cannot post new topics in this forum
You cannot reply to topics in this forum
You cannot edit your posts in this forum
You cannot delete your posts in this forum
You cannot post attachments in this forum

Search for:
Яндекс.Метрика
Powered by phpBB © 2000, 2002, 2005, 2007 phpBB Group