\m/ 80's metal \m/

Информационно-аналитический форум "80 см пыли" (In Search We Trust) "У нас никто никуда не спешит"
Me For You - http://me-4u.com
It is currently 18 Oct 2018

All times are UTC + 3 hours

Spoiler
Chat - temporary registration for foreign users (please leave your application here)







Post new topic Reply to topic  [ 10 posts ] 
Author Message
 
PostPosted: 09 Dec 2009 
Хиппей (support team)
User avatar
Joined: 30 Jul 2007
Posts: 106973
Lоcаtion: Киев (Kyiv, UA)
Age: 45
Name: Andrey
Blackfoot Sue - 1973 - Nothing To Hide (reissued 1995) [flac]

    Image

Genre: Classic Rock
Location: England
Format: flac(tracks)+cue+log+scans
Size: 342 Mb


Line-up:
Dave Farmer - drums
Tom Farmer - bass, keyboars, vocals
Eddie Golga - lead guitar, keyboards
Alan Jones - guitar, vocals

    1. Messiah - 04:59
    2. Country Home - 04:19
    3. Cry - 03:13
    4. My Oh My - 03:04
    5. Now We're Three - 02:37
    6. The Spring Of '69 - 03:55
    7. Glittery Obituary - 03:37
    8. On His Own - 03:26
    9. Too Soon - 04:40
    10. Gypsy Jam - 02:15
    11. Standing In The Road - 03:58
    12. Celestial Plain - 03:21
    13. Sing Don't Speak - 03:40
    14. 2 B Free - 03:15
    15. Summer (From The Season Suite) - 03:14

    TPT: 53:33

Mega l Narod

Хороший альбомчик с бонус-трэками.
Музыка поначалу типично классик-роковая, а местами и арт-рок пробивается с АОРом напополам, но вторая сторона пластинки уже привычный классик-рок с нехилым уклоном в хард-рок :meloman:

4/5
Звук малость "староват" и "сыроват", но слушать можно и нужно.

Источник: ослик :dance:

log
EAC extraction logfile from 18. August 2006, 21:34 for CD
Blackfoot Sue / Nothing To Hide

Used drive : _NEC CD-RW NR-9100A Adapter: 1 ID: 0
Read mode : Secure with NO C2, accurate stream, disable cache
Read offset correction : 685
Overread into Lead-In and Lead-Out : No

Used output format : Internal WAV Routines
44.100 Hz; 16 Bit; Stereo

Other options :
Fill up missing offset samples with silence : Yes
Delete leading and trailing silent blocks : No
Installed external ASPI interface


Track 1
Filename C:\Program Files\Exact Audio Copy\01 - Messiah.wav

Pre-gap length 0:00:02.00

Peak level 98.4 %
Track quality 100.0 %
Test CRC 50D1C98E
Copy CRC 50D1C98E
Copy OK

Track 2
Filename C:\Program Files\Exact Audio Copy\02 - Country Home.wav

Pre-gap length 0:00:02.50

Peak level 98.4 %
Track quality 100.0 %
Test CRC 2E6515E6
Copy CRC 2E6515E6
Copy OK

Track 3
Filename C:\Program Files\Exact Audio Copy\03 - Cry.wav

Pre-gap length 0:00:02.62

Peak level 93.0 %
Track quality 99.9 %
Test CRC 4D9C951A
Copy CRC 4D9C951A
Copy OK

Track 4
Filename C:\Program Files\Exact Audio Copy\04 - My Oh My.wav

Pre-gap length 0:00:02.45

Peak level 98.4 %
Track quality 100.0 %
Test CRC B9B844F0
Copy CRC B9B844F0
Copy OK

Track 5
Filename C:\Program Files\Exact Audio Copy\05 - Now We're Three.wav

Pre-gap length 0:00:02.53

Peak level 98.4 %
Track quality 100.0 %
Test CRC EDE503FA
Copy CRC EDE503FA
Copy OK

Track 6
Filename C:\Program Files\Exact Audio Copy\06 - The Spring Of '69.wav

Pre-gap length 0:00:02.67

Peak level 98.4 %
Track quality 100.0 %
Test CRC 991A3F6E
Copy CRC 991A3F6E
Copy OK

Track 7
Filename C:\Program Files\Exact Audio Copy\07 - Glittery Obituary.wav

Pre-gap length 0:00:02.63

Peak level 98.4 %
Track quality 100.0 %
Test CRC 6D07456B
Copy CRC 6D07456B
Copy OK

Track 8
Filename C:\Program Files\Exact Audio Copy\08 - On His Own.wav

Pre-gap length 0:00:02.62

Peak level 95.9 %
Track quality 100.0 %
Test CRC 1BCD66A7
Copy CRC 1BCD66A7
Copy OK

Track 9
Filename C:\Program Files\Exact Audio Copy\09 - Too Soon.wav

Pre-gap length 0:00:02.50

Peak level 98.4 %
Track quality 100.0 %
Test CRC 20D22619
Copy CRC 20D22619
Copy OK

Track 10
Filename C:\Program Files\Exact Audio Copy\10 - Gypsy Jam.wav

Pre-gap length 0:00:02.40

Peak level 98.4 %
Track quality 100.0 %
Test CRC B22E14C1
Copy CRC B22E14C1
Copy OK

Track 11
Filename C:\Program Files\Exact Audio Copy\11 - Standing In The Road.wav

Pre-gap length 0:00:02.55

Peak level 98.4 %
Track quality 100.0 %
Test CRC E973DCF8
Copy CRC E973DCF8
Copy OK

Track 12
Filename C:\Program Files\Exact Audio Copy\12 - Celestial Plain.wav

Pre-gap length 0:00:02.43

Peak level 98.4 %
Track quality 99.9 %
Test CRC 144629FC
Copy CRC 144629FC
Copy OK

Track 13
Filename C:\Program Files\Exact Audio Copy\13 - Sing Don't Speak.wav

Pre-gap length 0:00:02.42

Peak level 98.4 %
Track quality 100.0 %
Test CRC F6244E72
Copy CRC F6244E72
Copy OK

Track 14
Filename C:\Program Files\Exact Audio Copy\14 - 2 B Free.wav

Pre-gap length 0:00:01.72

Peak level 91.6 %
Track quality 100.0 %
Test CRC D43C18C0
Copy CRC D43C18C0
Copy OK

Track 15
Filename C:\Program Files\Exact Audio Copy\15 - Summer (From The Season Suite).wav

Pre-gap length 0:00:02.40

Peak level 93.0 %
Track quality 99.9 %
Test CRC 61C24399
Copy CRC 61C24399
Copy OK

No errors occured


End of status report


cue
REM DISCID B80C930F
REM COMMENT "ExactAudioCopy v0.95b4"
PERFORMER "Blackfoot Sue"
TITLE "Nothing To Hide"
FILE "01 - Messiah.wav" WAVE
TRACK 01 AUDIO
TITLE "Messiah"
PERFORMER "Blackfoot Sue"
INDEX 01 00:00:00
TRACK 02 AUDIO
TITLE "Country Home"
PERFORMER "Blackfoot Sue"
INDEX 00 04:56:47
FILE "02 - Country Home.wav" WAVE
INDEX 01 00:00:00
TRACK 03 AUDIO
TITLE "Cry"
PERFORMER "Blackfoot Sue"
INDEX 00 04:16:48
FILE "03 - Cry.wav" WAVE
INDEX 01 00:00:00
TRACK 04 AUDIO
TITLE "My Oh My"
PERFORMER "Blackfoot Sue"
INDEX 00 03:10:50
FILE "04 - My Oh My.wav" WAVE
INDEX 01 00:00:00
TRACK 05 AUDIO
TITLE "Now We're Three"
PERFORMER "Blackfoot Sue"
INDEX 00 03:02:05
FILE "05 - Now We're Three.wav" WAVE
INDEX 01 00:00:00
TRACK 06 AUDIO
TITLE "The Spring Of '69"
PERFORMER "Blackfoot Sue"
INDEX 00 02:34:50
FILE "06 - The Spring Of '69.wav" WAVE
INDEX 01 00:00:00
TRACK 07 AUDIO
TITLE "Glittery Obituary"
PERFORMER "Blackfoot Sue"
INDEX 00 03:53:05
FILE "07 - Glittery Obituary.wav" WAVE
INDEX 01 00:00:00
TRACK 08 AUDIO
TITLE "On His Own"
PERFORMER "Blackfoot Sue"
INDEX 00 03:34:45
FILE "08 - On His Own.wav" WAVE
INDEX 01 00:00:00
TRACK 09 AUDIO
TITLE "Too Soon"
PERFORMER "Blackfoot Sue"
INDEX 00 03:24:23
FILE "09 - Too Soon.wav" WAVE
INDEX 01 00:00:00
TRACK 10 AUDIO
TITLE "Gypsy Jam"
PERFORMER "Blackfoot Sue"
INDEX 00 04:37:70
FILE "10 - Gypsy Jam.wav" WAVE
INDEX 01 00:00:00
TRACK 11 AUDIO
TITLE "Standing In The Road"
PERFORMER "Blackfoot Sue"
INDEX 00 02:12:20
FILE "11 - Standing In The Road.wav" WAVE
INDEX 01 00:00:00
TRACK 12 AUDIO
TITLE "Celestial Plain"
PERFORMER "Blackfoot Sue"
INDEX 00 03:55:52
FILE "12 - Celestial Plain.wav" WAVE
INDEX 01 00:00:00
TRACK 13 AUDIO
TITLE "Sing Don't Speak"
PERFORMER "Blackfoot Sue"
INDEX 00 03:19:00
FILE "13 - Sing Don't Speak.wav" WAVE
INDEX 01 00:00:00
TRACK 14 AUDIO
TITLE "2 B Free"
PERFORMER "Blackfoot Sue"
INDEX 00 03:38:53
FILE "14 - 2 B Free.wav" WAVE
INDEX 01 00:00:00
TRACK 15 AUDIO
TITLE "Summer (From The Season Suite)"
PERFORMER "Blackfoot Sue"
INDEX 00 03:12:43
FILE "15 - Summer (From The Season Suite).wav" WAVE
INDEX 01 00:00:00

_________________


Top
 Profile E-mail  
 
 
PostPosted: 09 Dec 2009 
труъ антисионист
User avatar
Joined: 01 Aug 2007
Posts: 4541
Lоcаtion: Откуда и большинство из нас
Age: 37
Name: Дядя Вова
Ой, знакомые ребятки :crazy:
[youtube]<object width="425" height="344"><param name="movie" value="http://www.youtube.com/v/aWaJ6vNyvaw&hl=ru_RU&fs=1&color1=0x234900&color2=0x4e9e00"></param><param name="allowFullScreen" value="true"></param><param name="allowscriptaccess" value="always"></param><embed src="http://www.youtube.com/v/aWaJ6vNyvaw&hl=ru_RU&fs=1&color1=0x234900&color2=0x4e9e00" type="application/x-shockwave-flash" allowscriptaccess="always" allowfullscreen="true" width="425" height="344"></embed></object>[/youtube]

_________________
Image
Image


Top
 Profile  
 
 
PostPosted: 09 Dec 2009 
Персональный статус
Joined: 28 Sep 2009
Posts: 216
Name: Владимир
:thanx: :thanx: :thanx:


Top
 Profile E-mail  
 
 
PostPosted: 11 Feb 2010 
Почётный металлург
User avatar
Joined: 15 Sep 2007
Posts: 4357
Lоcаtion: Хабаровск
Age: 58
Name: чуть выше
Scatterbrain wrote:
Blackfoot Sue


Хотелось бы найти другие их альбомы в лосях:

1. Strangers (1977) recorded in 1974 , Repertoire REP 4579-WY
2. Gun Running (1975)
Ну и сборничек (надеюсь, там что-то неизданное)
3. The Best Of Blackfoot Sue (1996) Connoisseur CSAP CD123

_________________
Коль будешь людей ты ослами честить,
тебе человеком меж них не прослыть!
(Саади, персидский поэт, 13в.)


Top
 Profile  
 
 
PostPosted: 11 Feb 2010 
Анатолий
User avatar
Joined: 18 Oct 2008
Posts: 3133
Lоcаtion: Армавир
Age: 41
Name: Анатолий
Вот это ДА! :shok: Глазам своим не верю! Их знают!!! :smile:

Sergey wrote:
1. Strangers (1977) recorded in 1974


Есть на пиратке.


Top
 Profile E-mail  
 
 
PostPosted: 12 Feb 2010 
Почётный металлург
User avatar
Joined: 15 Sep 2007
Posts: 4357
Lоcаtion: Хабаровск
Age: 58
Name: чуть выше
Privateer wrote:
Их знают!!!

Еще по винилу.

Сделай пжлста пиратку, раз Repertoire нет.

_________________
Коль будешь людей ты ослами честить,
тебе человеком меж них не прослыть!
(Саади, персидский поэт, 13в.)


Top
 Profile  
 
 
PostPosted: 12 Feb 2010 
Хиппей (support team)
User avatar
Joined: 30 Jul 2007
Posts: 106973
Lоcаtion: Киев (Kyiv, UA)
Age: 45
Name: Andrey
А я зачем-то качаю видео (сборное) с этой группой :oops:

_________________


Top
 Profile E-mail  
 
 
PostPosted: 12 Feb 2010 
Анатолий
User avatar
Joined: 18 Oct 2008
Posts: 3133
Lоcаtion: Армавир
Age: 41
Name: Анатолий
Sergey wrote:
Сделай пжлста пиратку, раз Repertoire нет.


ОК. В ближайшее время оформлю.


Top
 Profile E-mail  
 
 
PostPosted: 12 Feb 2010 
Почётный металлург
User avatar
Joined: 15 Sep 2007
Posts: 4357
Lоcаtion: Хабаровск
Age: 58
Name: чуть выше
Scatterbrain wrote:
я зачем-то качаю видео (сборное) с этой группой

Ну и правильно. Тоже надо. Рад буду его здесь увидеть. :thanx:

_________________
Коль будешь людей ты ослами честить,
тебе человеком меж них не прослыть!
(Саади, персидский поэт, 13в.)


Top
 Profile  
 
 
PostPosted: 13 Feb 2010 
Хиппей (support team)
User avatar
Joined: 30 Jul 2007
Posts: 106973
Lоcаtion: Киев (Kyiv, UA)
Age: 45
Name: Andrey
Сереж, скачал я его, но пока не смотрел. называется это чудо - Glam Rock 3 (Blackfoot Sue, Queen, John Lennon, Uriah Heep, Nazareth, Slade, Bachman Turner Overdrive, Glitter Band, Bellamy Brothers, Kiss, Golden Earring) (1 Hr 13 Min).MPG

_________________


Top
 Profile E-mail  
 
Display posts from previous:  Sort by  
Post new topic Reply to topic  [ 10 posts ] 

All times are UTC + 3 hours


Who is online

Users browsing this forum: No registered users and 2 guests


You cannot post new topics in this forum
You cannot reply to topics in this forum
You cannot edit your posts in this forum
You cannot delete your posts in this forum
You cannot post attachments in this forum

Search for:
Яндекс.Метрика
Powered by phpBB © 2000, 2002, 2005, 2007 phpBB Group