\m/ 80's metal \m/

Информационно-аналитический форум "80 см пыли" (In Search We Trust) "У нас никто никуда не спешит"
Me For You - http://me-4u.com
It is currently 17 Oct 2018

All times are UTC + 3 hours

Spoiler
Chat - temporary registration for foreign users (please leave your application here)







Post new topic Reply to topic  [ 13 posts ] 
Author Message
 
PostPosted: 23 Nov 2009 
Old Time Rock`n`Roll
User avatar
Joined: 23 Jun 2008
Posts: 3356
Lоcаtion: г.Ульяновск
Age: 40
Name: Константин
Bloody Six – In The Name Of Blood (1984)

Attachment:
front.jpg
front.jpg [ 39.17 KiB | Viewed 1911 times ]

Attachment:
back.jpg
back.jpg [ 51.13 KiB | Viewed 1898 times ]

Attachment:
vinyl.jpg
vinyl.jpg [ 46.36 KiB | Viewed 1893 times ]


Year: 1984
Style: Traditional Heavy Metal
Country: Switzerland
Format: APE + cue + scans +mp3-320
Size: 246 Mb / 86 Mb

Tracklist
1. Starchaser 04:42
2. High Class n' Wild 03:55
3. Let It Burn 03:13
4. Cold Winds Blow 03:56
5. Fuck The Nation 03:14
6. Rough Stuff 03:27
7. Black Eagle 04:52
8. Way Of The Hunter 04:25
9. The End Of The World 05:14

TPT – 37:50

Line-Up
Peter McTanner - vocals (Krokus, Headhunter (Che))
Martin McTanner - guitar
Def Meier - guitar
Claudio Matteo - guitar (China)
Fritz Hulliger - bass
Freddie Meier - drums

Spectres

Attachment:
spectrum.jpg
spectrum.jpg [ 62.36 KiB | Viewed 1914 times ]


Cue
PERFORMER "Bloody Six"
TITLE "In the Name of Blood"
FILE "In The Name Of Blood.wav" WAVE
TRACK 01 AUDIO
TITLE "Starchaser"
PERFORMER "Bloody Six"
INDEX 01 00:00:00
TRACK 02 AUDIO
TITLE "High ClassґnґWild"
PERFORMER "Bloody Six"
INDEX 01 04:50:23
TRACK 03 AUDIO
TITLE "Let It Burn"
PERFORMER "Bloody Six"
INDEX 01 08:50:00
TRACK 04 AUDIO
TITLE "Cold Winds Blow"
PERFORMER "Bloody Six"
INDEX 01 12:07:00
TRACK 05 AUDIO
TITLE "Fuck The Nation"
PERFORMER "Bloody Six"
INDEX 01 16:07:50
TRACK 06 AUDIO
TITLE "Rough Stuff"
PERFORMER "Bloody Six"
INDEX 01 19:25:50
TRACK 07 AUDIO
TITLE "Black Eagle"
PERFORMER "Bloody Six"
INDEX 01 22:58:15
TRACK 08 AUDIO
TITLE "Way Of The Hunter"
PERFORMER "Bloody Six"
INDEX 01 27:55:54
TRACK 09 AUDIO
TITLE "The End Of The World"
PERFORMER "Bloody Six"
INDEX 01 32:27:48


APE
narod-APE

mp3-320
megaupload-320


Релиз с ММТ, автор – IronPriest. У него как всегда туго с обложками, сканов нет, кое-что я наковырял в интернете, если у кого есть получше, выкладывайте ради общего дела.
Альбом – традиционный хэви-метал серидины 80-х, для тех кто тоскует по 1984 году.


Top
 Profile  
 
 
PostPosted: 23 Nov 2009 
дядя Миша
User avatar
Joined: 17 Oct 2008
Posts: 3060
Lоcаtion: USSR
Age: 56
Name: Khy
На CD не издавался.
Три гитариста там игают , вокалист в Крокусе хрипел. Альбом ураган , каких мало!


Top
 Profile  
 
 
PostPosted: 23 Nov 2009 
Персональный статус
Joined: 06 Oct 2007
Posts: 339
На CD мексиканская контора Blower Records выпустила недавно, но запись там вроде с винила.


Top
 Profile  
 
 
PostPosted: 25 Nov 2009 
udo
User avatar
Joined: 01 Mar 2008
Posts: 2343
Lоcаtion: Краснодар
Age: 47
Name: РОМАН
VARVAAR wrote:
Альбом ураган

точно, особенно 8 трек :true:


Top
 Profile E-mail  
 
 
PostPosted: 25 Nov 2009 
дядя Миша
User avatar
Joined: 17 Oct 2008
Posts: 3060
Lоcаtion: USSR
Age: 56
Name: Khy
Quote:
На CD мексиканская контора Blower Records выпустила недавно, но запись там вроде с винила.


Надо покупать и проверять.... 12 баков , это нормально. Конечно с винила , но они чистят не плохо.


Top
 Profile  
 
 
PostPosted: 27 Nov 2009 
Почётный металлург
User avatar
Joined: 15 Sep 2007
Posts: 4357
Lоcаtion: Хабаровск
Age: 58
Name: чуть выше
Спасибо, Костя! Рад, что лось появился. :thanx: :dance:

_________________
Коль будешь людей ты ослами честить,
тебе человеком меж них не прослыть!
(Саади, персидский поэт, 13в.)


Top
 Profile  
 
 
PostPosted: 02 Jan 2010 
Персональный статус
User avatar
Joined: 16 Jul 2008
Posts: 222
Lоcаtion: Киров
Age: 29
Name: Олег
:true: класс, спасибо большое!


Top
 Profile  
 
 
PostPosted: 06 Feb 2010 
Персональный статус
Joined: 21 Aug 2009
Posts: 239
Name: alex
ОГРОМНОЕ СПАСИБО :thanx:


Top
 Profile E-mail  
 
 
PostPosted: 09 Feb 2010 
Персональный статус
User avatar
Joined: 03 Jun 2008
Posts: 253
Age: 48
Name: АнаТолий
oldrocker
Отдельное мерси за 320 :true: :thanx:!


Top
 Profile  
 
 
PostPosted: 19 Mar 2010 
Thrasher
User avatar
Joined: 07 Oct 2007
Posts: 2756
Lоcаtion: Russia, Moscow
Age: 34
Name: Drunk & Evil
Спасибо, порадовала банда :thanx:

_________________
ВОДКА, БАБЫ И БЛЮЗ / 40° till death... :bodun:
One time we saw some hookers, but when we got closer, we realised it was Mötley Crüe. ©


Top
 Profile  
 
 
PostPosted: 28 Nov 2011 
Хиппей (support team)
User avatar
Joined: 30 Jul 2007
Posts: 106944
Lоcаtion: Киев (Kyiv, UA)
Age: 45
Name: Andrey
oldrocker wrote:
Релиз с ММТ, автор – IronPriest


mirror: MultiUp l Narod

_________________


Top
 Profile E-mail  
 
 
PostPosted: 28 Nov 2011 
Доктор энтомологии
User avatar
Joined: 22 Jan 2009
Posts: 9380
Lоcаtion: Даугавпилс
Age: 43
Name: Алексей
oldrocker
за 320 мптрей :thanx:


Top
 Profile  
 
 
PostPosted: 28 Feb 2016 
Трешер
User avatar
Joined: 25 Feb 2011
Posts: 1053
Lоcаtion: Харьков
Age: 42
Name: Aleksandr
:thanx:


Top
 Profile E-mail  
 
Display posts from previous:  Sort by  
Post new topic Reply to topic  [ 13 posts ] 

All times are UTC + 3 hours


Who is online

Users browsing this forum: No registered users and 1 guest


You cannot post new topics in this forum
You cannot reply to topics in this forum
You cannot edit your posts in this forum
You cannot delete your posts in this forum
You cannot post attachments in this forum

Search for:
Яндекс.Метрика
Powered by phpBB © 2000, 2002, 2005, 2007 phpBB Group