\m/ 80's metal \m/

Информационно-аналитический форум "80 см пыли" (In Search We Trust) "У нас никто никуда не спешит"
Me For You - http://me-4u.com
It is currently 22 Oct 2018

All times are UTC + 3 hours

Spoiler
Chat - temporary registration for foreign users (please leave your application here)







Post new topic Reply to topic  [ 8 posts ] 
Author Message
 
PostPosted: 24 Oct 2009 
5-speed satisfactor
User avatar
Joined: 16 Feb 2009
Posts: 3604
Lоcаtion: New York, USA
Age: 40
Name: Leonid
Blitzspeer - 1990 - Live [flac]

Image

    1. City Boy - 03:48
    2. Sonic Glory - 03:19
    3. Road Machine - 07:50
    4. Laughter - 04:24
    5. Sky High Again - 02:45
    6. Race to Win - 05:01
    7. Kick Out the Jams - 03:02

    TPT: 30:09

http://www.megaupload.com/?d=ISRA5IL9

cue
REM GENRE "Hard Rock"
REM DATE 1990
REM DISCID 3E071407
REM COMMENT "ExactAudioCopy v0.99pb5"
PERFORMER "Blitzspeer"
TITLE "Blitzspeer Live"
FILE "Blitzspeer - Blitzspeer Live.flac" WAVE
TRACK 01 AUDIO
TITLE "City Boy"
PERFORMER "Blitzspeer"
INDEX 01 00:00:00
TRACK 02 AUDIO
TITLE "Sonic Glory"
PERFORMER "Blitzspeer"
INDEX 01 03:48:42
TRACK 03 AUDIO
TITLE "Road Machine"
PERFORMER "Blitzspeer"
INDEX 01 07:07:57
TRACK 04 AUDIO
TITLE "Laughter"
PERFORMER "Blitzspeer"
INDEX 01 14:58:45
TRACK 05 AUDIO
TITLE "Sky High Again"
PERFORMER "Blitzspeer"
INDEX 01 19:23:07
TRACK 06 AUDIO
TITLE "Race To Win"
PERFORMER "Blitzspeer"
INDEX 01 22:08:30
TRACK 07 AUDIO
TITLE "Kick Out The Jams"
PERFORMER "Blitzspeer"
INDEX 01 27:09:35


log
Exact Audio Copy V0.99 prebeta 5 from 4. May 2009

EAC extraction logfile from 24. October 2009, 12:45

Blitzspeer / Blitzspeer Live

Used drive : MATSHITADVD-R UJ-867 Adapter: 0 ID: 0

Read mode : Secure
Utilize accurate stream : Yes
Defeat audio cache : No
Make use of C2 pointers : Yes

Read offset correction : 102
Overread into Lead-In and Lead-Out : No
Fill up missing offset samples with silence : Yes
Delete leading and trailing silent blocks : No
Null samples used in CRC calculations : No
Used interface : Native Win32 interface for Win NT & 2000

Used output format : User Defined Encoder
Selected bitrate : 768 kBit/s
Quality : High
Add ID3 tag : No
Command line compressor : C:\Program Files\Exact Audio Copy\FLAC\FLAC.EXE
Additional command line options : -8 -V -T "ARTIST=%a" -T "TITLE=%t" -T "ALBUM=%g" -T "DATE=%y" -T "TRACKNUMBER=%n" -T "GENRE=%m" -T "COMMENT=%e" %s -o %d


TOC of the extracted CD

Track | Start | Length | Start sector | End sector
---------------------------------------------------------
1 | 0:00.00 | 3:48.42 | 0 | 17141
2 | 3:48.42 | 3:19.15 | 17142 | 32081
3 | 7:07.57 | 7:50.63 | 32082 | 67394
4 | 14:58.45 | 4:24.37 | 67395 | 87231
5 | 19:23.07 | 2:45.23 | 87232 | 99629
6 | 22:08.30 | 5:01.05 | 99630 | 122209
7 | 27:09.35 | 3:02.42 | 122210 | 135901


Range status and errors

Selected range

Filename C:\Documents and Settings\leonid\My Documents\My Music\ToCD\Blitzspeer - Blitzspeer Live.wav

Peak level 100.0 %
Range quality 100.0 %
Copy CRC E2E5218E
Copy OK

No errors occurred

End of status report

_________________
Death rules! Metal to all who oppose!


Top
 Profile  
 
 
PostPosted: 25 Oct 2009 
А может смените мне статус?..
User avatar
Joined: 17 Jan 2008
Posts: 862
Lоcаtion: Пенза
Age: 41
Name: Денис
Спасибо!!!!!!!!!!!!!! :thanx: :true:


Top
 Profile  
 
 
PostPosted: 25 Oct 2009 
Хиппей (support team)
User avatar
Joined: 30 Jul 2007
Posts: 107108
Lоcаtion: Киев (Kyiv, UA)
Age: 45
Name: Andrey
Лёня, спасибо! :true:

_________________


Top
 Profile E-mail  
 
 
PostPosted: 19 Mar 2010 
Thrasher
User avatar
Joined: 07 Oct 2007
Posts: 2756
Lоcаtion: Russia, Moscow
Age: 34
Name: Drunk & Evil
Не слыхал, сцылочка того :fingal:

_________________
ВОДКА, БАБЫ И БЛЮЗ / 40° till death... :bodun:
One time we saw some hookers, but when we got closer, we realised it was Mötley Crüe. ©


Top
 Profile  
 
 
PostPosted: 19 Mar 2010 
Хиппей (support team)
User avatar
Joined: 30 Jul 2007
Posts: 107108
Lоcаtion: Киев (Kyiv, UA)
Age: 45
Name: Andrey
Чего-то я и у себя пока не вижу альбома... Мож как-то не так был архив назван, позже как-нить проверю.

_________________


Top
 Profile E-mail  
 
 
PostPosted: 19 Mar 2010 
Работнечег
User avatar
Joined: 28 Aug 2007
Posts: 5470
Lоcаtion: г. Москва
Age: 29
Name: Дима
я качал, перезалью....


Top
 Profile E-mail  
 
 
PostPosted: 19 Mar 2010 
Хиппей (support team)
User avatar
Joined: 30 Jul 2007
Posts: 107108
Lоcаtion: Киев (Kyiv, UA)
Age: 45
Name: Andrey
Да и я качал (пост после этого переоформлял), но как всегда, лось куда-то не туда попёрся пастись :vic:

_________________


Top
 Profile E-mail  
 
 
PostPosted: 24 Mar 2010 
Работнечег
User avatar
Joined: 28 Aug 2007
Posts: 5470
Lоcаtion: г. Москва
Age: 29
Name: Дима
Перезалил:
Blitzspeer - Live


Top
 Profile E-mail  
 
Display posts from previous:  Sort by  
Post new topic Reply to topic  [ 8 posts ] 

All times are UTC + 3 hours


Who is online

Users browsing this forum: No registered users and 3 guests


You cannot post new topics in this forum
You cannot reply to topics in this forum
You cannot edit your posts in this forum
You cannot delete your posts in this forum
You cannot post attachments in this forum

Search for:
Яндекс.Метрика
Powered by phpBB © 2000, 2002, 2005, 2007 phpBB Group