\m/ 80's metal \m/

Информационно-аналитический форум "80 см пыли" (In Search We Trust) "У нас никто никуда не спешит"
Me For You - http://me-4u.com
It is currently 22 Oct 2018

All times are UTC + 3 hours

Spoiler
Chat - temporary registration for foreign users (please leave your application here)







Post new topic Reply to topic  [ 5 posts ] 
Author Message
 
PostPosted: 24 Sep 2009 
Работнечег
User avatar
Joined: 28 Aug 2007
Posts: 5470
Lоcаtion: г. Москва
Age: 29
Name: Дима
Image

Year: 2007
Style: Heavy Metal
Country: Germany
Audio: flac+cue+log+covers
Size: 488 Mb
Label: Karthago Records

Line-Up:
Udo Bethke: vocals
Thorsten Bettge: guitar
Norbert Wieczorek: guitar
Michael Wiekenberg: bass
Gonzo Loss: drums


Tracklist:
1. Dark strange night (new version) 03:20
2. Lose my mind 03:14
3. Point of the sword (new version) 03:27
4. Fight at night 03:27
5. Suicide 04:10
6. Dragonride 03:29
7. Burning Angels 03:44
8. Saturday night 04:22
9. Let us break the night down 03:45
10. Black wheel dealer 02:10
11. Black hawk 03:30
12. Our land (bonus) 03:07
13. First Attack (bonus) 04:15
14. Point of the sword (bonus) 03:51
15. Midnight hero (bonus) 03:32
16. Sea of thousand deaths (bonus) 04:34
17. Dark strange night (bonus) 03:16
Total playing time 01:01:19

Bonus songs 13-17 from the mini-LP "First Attack (1989)"

CUE
REM GENRE "Heavy Metal"
REM DATE 2007
REM DISCID E00E6611
REM COMMENT "ExactAudioCopy v0.95b4"
PERFORMER "Black Hawk"
TITLE "Dragonride"
FILE "Black Hawk - Dragonride.wav" WAVE
TRACK 01 AUDIO
TITLE "Dark Strange Night (New Version)"
PERFORMER "Black Hawk"
FLAGS DCP
INDEX 01 00:00:00
TRACK 02 AUDIO
TITLE "Lose My Mind"
PERFORMER "Black Hawk"
FLAGS DCP
INDEX 00 03:17:66
INDEX 01 03:19:66
TRACK 03 AUDIO
TITLE "Point Of The Sword (New Version)"
PERFORMER "Black Hawk"
FLAGS DCP
INDEX 00 06:31:41
INDEX 01 06:33:41
TRACK 04 AUDIO
TITLE "Fight At Night"
PERFORMER "Black Hawk"
FLAGS DCP
INDEX 00 09:58:41
INDEX 01 10:00:41
TRACK 05 AUDIO
TITLE "Suicide"
PERFORMER "Black Hawk"
FLAGS DCP
INDEX 00 13:35:41
INDEX 01 13:37:41
TRACK 06 AUDIO
TITLE "Dragonride"
PERFORMER "Black Hawk"
FLAGS DCP
INDEX 00 17:45:29
INDEX 01 17:47:29
TRACK 07 AUDIO
TITLE "Burning Angels"
PERFORMER "Black Hawk"
FLAGS DCP
INDEX 00 21:13:65
INDEX 01 21:15:65
TRACK 08 AUDIO
TITLE "Saturday Night"
PERFORMER "Black Hawk"
FLAGS DCP
INDEX 00 24:58:13
INDEX 01 25:00:13
TRACK 09 AUDIO
TITLE "Let Us Break The Night Down"
PERFORMER "Black Hawk"
FLAGS DCP
INDEX 00 29:20:40
INDEX 01 29:22:40
TRACK 10 AUDIO
TITLE "Black Whel Dealer"
PERFORMER "Black Hawk"
FLAGS DCP
INDEX 00 33:05:53
INDEX 01 33:07:53
TRACK 11 AUDIO
TITLE "Black Hawk"
PERFORMER "Black Hawk"
FLAGS DCP
INDEX 00 35:16:00
INDEX 01 35:18:00
TRACK 12 AUDIO
TITLE "Our Land (Bonus)"
PERFORMER "Black Hawk"
FLAGS DCP
INDEX 00 38:45:39
INDEX 01 38:47:39
TRACK 13 AUDIO
TITLE "First Attack (Bonus)"
PERFORMER "Black Hawk"
FLAGS DCP
INDEX 00 41:52:64
INDEX 01 41:54:64
TRACK 14 AUDIO
TITLE "Point Of The Sword (Bonus)"
PERFORMER "Black Hawk"
FLAGS DCP
INDEX 00 46:07:25
INDEX 01 46:09:25
TRACK 15 AUDIO
TITLE "Midnight Hero (Bonus)"
PERFORMER "Black Hawk"
FLAGS DCP
INDEX 00 49:58:29
INDEX 01 50:00:29
TRACK 16 AUDIO
TITLE "Sea Of Thousand Deaths (Bonus)"
PERFORMER "Black Hawk"
FLAGS DCP
INDEX 00 53:30:26
INDEX 01 53:32:26
TRACK 17 AUDIO
TITLE "Dark Strange Night (Bonus)"
PERFORMER "Black Hawk"
FLAGS DCP
INDEX 00 58:04:04
INDEX 01 58:06:04


LOG
Отчёт EAC об извлечении, выполненном 14. сентября 2009, 18:47 для диска:
Black Hawk / Dragonride

Дисковод: PIONEER DVD-RW DVR-116D Adapter: 0 ID: 0
Режим чтения: Достоверный (C2: нет, Точный поток: да, Отключение кэша: да)
Коррекция смещения при чтении: 96
Способность читать области Lead-in и Lead-out : Нет

Выходной формат: Внутренние WAV-операции
44.100 Гц; 16 бит; стерео

Другие параметры:
Заполнение пропущенных сэмплов тишиной : Да
Удаление блоков с тишиной в начале и конце : Нет
Установленный внешний ASPI-интерфейс


Характеристики диапазона извлечения и сообщения об ошибках
Выбранный диапазон
Имя файла D:\Музыка\Lossless\Black Hawk - Dragonride.wav

Пиковый уровень 100.0 %
Качество диапазона 100.0 %
CRC 5B17F930
Копирование... OK

Ошибок не произошло

Конец отчёта


Spectrum
Image


http://ifolder.ru/14145895
http://ifolder.ru/14145896
http://ifolder.ru/14145897
http://ifolder.ru/14145898
http://ifolder.ru/14145899
http://ifolder.ru/14153733

Хороший такой олдскульный хэви.Группа образовалась аж в 1981 году, но альбомы стала выпускать только в 21 веке.За предоставленный диск большое спасибо Анатолию roxxx :thanx:


Top
 Profile E-mail  
 
 
PostPosted: 24 Sep 2009 
Персональный статус
Joined: 15 Nov 2008
Posts: 285
Lоcаtion: прага
Age: 48
Name: .сергей
:nea: слухал его раньше.не очень хоть и немцы.поэтому и выпустили так поздно альбом(тем более на картаго).в 80-х не могли конкурировать даже со вторым эшелоном!а сейчас прокатит.


Top
 Profile  
 
 
PostPosted: 24 Sep 2009 
Я набрал 1000 сообщений!
User avatar
Joined: 25 Dec 2008
Posts: 1545
Age: 43
Name: Павел
Предыдущий альбом-"Твентифайв" очень неплох был.У группы какое-то свое лицо есть и музон оригинальный.Этот не слушал.


Top
 Profile  
 
 
PostPosted: 25 Sep 2009 
Труъ
User avatar
Joined: 14 Jul 2009
Posts: 158
Lоcаtion: Hell Is Here
Age: 48
Name: Adriano
church, Many Thanx ! :thanx: :true:


Top
 Profile E-mail  
 
 
PostPosted: 25 Oct 2009 
Прокъмитолист
User avatar
Joined: 12 Aug 2007
Posts: 6490
Lоcаtion: Санктъ-Петербуркъ
Age: 51
Name: Олекъ
и я утащил. спасибо, Дим (и Анатолию тоже) :thanx:

_________________
прокъметол - это музыко, от которово есть прок (ы)


Top
 Profile  
 
Display posts from previous:  Sort by  
Post new topic Reply to topic  [ 5 posts ] 

All times are UTC + 3 hours


Who is online

Users browsing this forum: No registered users and 4 guests


You cannot post new topics in this forum
You cannot reply to topics in this forum
You cannot edit your posts in this forum
You cannot delete your posts in this forum
You cannot post attachments in this forum

Search for:
Яндекс.Метрика
Powered by phpBB © 2000, 2002, 2005, 2007 phpBB Group