\m/ 80's metal \m/

Информационно-аналитический форум "80 см пыли" (In Search We Trust) "У нас никто никуда не спешит"
Me For You - http://me-4u.com
It is currently 24 Oct 2018

All times are UTC + 3 hours

Spoiler
Chat - temporary registration for foreign users (please leave your application here)







Post new topic Reply to topic  [ 3 posts ] 
Author Message
 
PostPosted: 05 Sep 2009 
А может смените мне статус?..
Joined: 12 Dec 2008
Posts: 981
Lоcаtion: BULGARIA
Age: 40
Name: DIMITЪR
Bloodstained (Grc) - Greetings From Hell

Image

Genre:Traditional metal

1.Smash Your Heads 00:12
2.Die by My Sword 04:07
3.Prisoners of Time 03:11
4.Burn the Sky 06:01
5.Bloodstain 04:26
6.Greetings from Hell 04:04
7.Sacrifice 05:25
8.Related to Danger 04:19
9.The Fugitive 05:00
10.Son of the Damned 06:36
************************
Total playing time:45:21

Thanks!!!! :true: :true: :true:


Top
 Profile  
 
 
PostPosted: 18 Mar 2011 
Работнечег
User avatar
Joined: 28 Aug 2007
Posts: 5470
Lоcаtion: г. Москва
Age: 29
Name: Дима
Вот отсюда можно скачать или отсюда или собственно с ММТ.


Top
 Profile E-mail  
 
 
PostPosted: 02 Apr 2012 
Хиппей (support team)
User avatar
Joined: 30 Jul 2007
Posts: 107154
Lоcаtion: Киев (Kyiv, UA)
Age: 45
Name: Andrey
Image

Альбом давно утянул с ММТ, но начал слушать только сегодня.
И шо я слишу? :rabo:
Обычный, приевшийся Heavy/Power с конкретным закосом под Iron Maiden, Jag Panzer и Rage (в основном касается манеры пения вокалиста).
Ничего нового, лишь саунд современный. Всё. Хитов парочку можно нацарапать, но очень при этом постараться. Мелодий красивых (хоть и гитарист очень старался) ноль. Всё тупо слямзено у грандов стиля и подано в холодном, давно остывшем виде на стол - жрите. А вот не лезет, едрить :esel:

В общем - получилась пустышка :(
Жуй её хот так, хоть сяк, а молока то и нету. Лишь привкус резины. Пардон, силикона :yyy:

3/10

Сисег на обложке у греков, как ни странно, тоже не оказалось :esel:

Image

Thanx to FireSnake from MMT :thanx:

Speedy l Narod

log
Exact Audio Copy V0.99 prebeta 5 from 4. May 2009

EAC extraction logfile from 6. February 2011, 23:32

Bloodstained / Greetings From Hell

Used drive : Optiarc DVD RW AD-7260S Adapter: 3 ID: 0

Read mode : Secure
Utilize accurate stream : Yes
Defeat audio cache : Yes
Make use of C2 pointers : No

Read offset correction : 48
Overread into Lead-In and Lead-Out : No
Fill up missing offset samples with silence : Yes
Delete leading and trailing silent blocks : No
Null samples used in CRC calculations : Yes
Used interface : Installed external ASPI interface

Used output format : User Defined Encoder
Selected bitrate : 1024 kBit/s
Quality : High
Add ID3 tag : No
Command line compressor : D:\Program Files\Exact Audio Copy\WavPack\wavpack.exe
Additional command line options : -hhx6 -w "Artist=%a" -w "Album=%g" -w "Year=%y" -w "Genre=%m" -w "Cuesheet=@*.cue" %s %d


TOC of the extracted CD

Track | Start | Length | Start sector | End sector
---------------------------------------------------------
1 | 0:00.00 | 0:12.03 | 0 | 902
2 | 0:12.03 | 4:07.66 | 903 | 19493
3 | 4:19.69 | 5:11.06 | 19494 | 42824
4 | 9:31.00 | 6:01.15 | 42825 | 69914
5 | 15:32.15 | 4:26.71 | 69915 | 89935
6 | 19:59.11 | 4:04.15 | 89936 | 108250
7 | 24:03.26 | 5:25.23 | 108251 | 132648
8 | 29:28.49 | 4:19.04 | 132649 | 152077
9 | 33:47.53 | 5:00.33 | 152078 | 174610
10 | 38:48.11 | 6:36.29 | 174611 | 204339
11 | 47:56.40 | 12:36.72 | 215740 | 272511


Range status and errors

Selected range

Filename H:\BLOODSTAINED [2004] [CD] Greetings From Hell [EAC-WV]\Bloodstained - Greetings From Hell.wav

Peak level 100.0 %
Range quality 100.0 %
Copy CRC A2C6DA51
Copy OK

No errors occurred


AccurateRip summary

Track 1 accurately ripped (confidence 1) [B86E2D22]
Track 2 accurately ripped (confidence 1) [DB824F3D]
Track 3 accurately ripped (confidence 1) [C73AC419]
Track 4 accurately ripped (confidence 1) [4EBC29F3]
Track 5 accurately ripped (confidence 1) [7E4EAACB]
Track 6 accurately ripped (confidence 1) [0BDA98AC]
Track 7 accurately ripped (confidence 1) [5A196487]
Track 8 accurately ripped (confidence 1) [131B0A45]
Track 9 accurately ripped (confidence 1) [1B8BF406]
Track 10 accurately ripped (confidence 1) [5EF35754]

All tracks accurately ripped

End of status report

cue
REM GENRE "Traditional Power Metal"
REM DATE 2004
REM DISCID 7E0E310B
REM COMMENT "ExactAudioCopy v0.99pb5"
PERFORMER "Bloodstained"
TITLE "Greetings From Hell"
FILE "Bloodstained - Greetings From Hell.wv" WAVE
TRACK 01 AUDIO
TITLE "Smash Your Heads"
PERFORMER "Bloodstained"
INDEX 01 00:00:00
TRACK 02 AUDIO
TITLE "Die By My Sword"
PERFORMER "Bloodstained"
INDEX 01 00:12:03
TRACK 03 AUDIO
TITLE "Prisoners Of Time"
PERFORMER "Bloodstained"
INDEX 01 04:19:69
TRACK 04 AUDIO
TITLE "Burn The Sky"
PERFORMER "Bloodstained"
INDEX 01 09:31:00
TRACK 05 AUDIO
TITLE "Bloodstain"
PERFORMER "Bloodstained"
INDEX 01 15:32:15
TRACK 06 AUDIO
TITLE "Greetings From Hell"
PERFORMER "Bloodstained"
INDEX 01 19:59:11
TRACK 07 AUDIO
TITLE "Sacrifice"
PERFORMER "Bloodstained"
INDEX 01 24:03:26
TRACK 08 AUDIO
TITLE "Related To Danger"
PERFORMER "Bloodstained"
INDEX 01 29:28:49
TRACK 09 AUDIO
TITLE "The Figutive"
PERFORMER "Bloodstained"
INDEX 01 33:47:53
TRACK 10 AUDIO
TITLE "Son Of The Damned"
PERFORMER "Bloodstained"
INDEX 01 38:48:11

spectrum
Image

_________________


Top
 Profile E-mail  
 
Display posts from previous:  Sort by  
Post new topic Reply to topic  [ 3 posts ] 

All times are UTC + 3 hours


Who is online

Users browsing this forum: No registered users and 2 guests


You cannot post new topics in this forum
You cannot reply to topics in this forum
You cannot edit your posts in this forum
You cannot delete your posts in this forum
You cannot post attachments in this forum

Search for:
Яндекс.Метрика
Powered by phpBB © 2000, 2002, 2005, 2007 phpBB Group