\m/ 80's metal \m/

Информационно-аналитический форум "80 см пыли" (In Search We Trust) "У нас никто никуда не спешит"
Me For You - http://me-4u.com
It is currently 15 Dec 2018

All times are UTC + 3 hours

Spoiler
Chat - temporary registration for foreign users (please leave your application here)







Post new topic Reply to topic  [ 11 posts ] 
Author Message
 
PostPosted: 22 Aug 2009 
udo
User avatar
Joined: 01 Mar 2008
Posts: 2343
Lоcаtion: Краснодар
Age: 48
Name: РОМАН
BLITZSPEER - 1991- Saves

Image

Genre: Thrash
Location: USA
Format: ape
Size: 298

1. Blitzspeer — Sonic Glory (3:58)
2. Blitzspeer — Truck of Love (4:21)
3. Blitzspeer — City of Angels (2:43)
4. Blitzspeer — Seems like Yesterday (4:42)
5. Blitzspeer — Bad Girl (3:03)
6. Blitzspeer — Mother Superior (5:18)
7. Blitzspeer — Man in Black (3:22)
8. Blitzspeer — Almost Tomorrow (2:53)
9. Blitzspeer — Dead & Dyin (2:39)
10. Blitzspeer — Can't Lose (4:00)
11. Blitzspeer — American Dog (9:28)

http://spinoza.ifolder.ru/13645982
http://spinoza.ifolder.ru/13646554
http://spinoza.ifolder.ru/13647034
http://spinoza.ifolder.ru/13647114

log
EAC extraction logfile from 27. January 2009, 11:45 for CD
Blitzspeer / Saves

Used drive : PIONEER DVD-RW DVR-212 Adapter: 2 ID: 0
Read mode : Secure with NO C2, accurate stream, disable cache
Read offset correction : 48
Overread into Lead-In and Lead-Out : No

Used output format : Internal WAV Routines
44.100 Hz; 16 Bit; Stereo

Other options :
Fill up missing offset samples with silence : Yes
Delete leading and trailing silent blocks : No
Installed external ASPI interface


Range status and errors
Selected range
Filename D:\Temp\Blitzspeer - Saves.wav

Peak level 97.6 %
Range quality 100.0 %
CRC 85160FC0
Copy OK

No errors occured

End of status report


cue
PERFORMER "Blitzspeer"
TITLE "Saves"
FILE "Blitzspeer - Saves.ape" WAVE
TRACK 01 AUDIO
TITLE "Sonic Glory"
PERFORMER "Blitzspeer"
INDEX 01 00:00:00
TRACK 02 AUDIO
TITLE "Truck Of Love"
PERFORMER "Blitzspeer"
INDEX 01 03:58:60
TRACK 03 AUDIO
TITLE "City Of Angels"
PERFORMER "Blitzspeer"
INDEX 01 08:20:43
TRACK 04 AUDIO
TITLE "Seems Like Yesterday"
PERFORMER "Blitzspeer"
INDEX 01 11:04:45
TRACK 05 AUDIO
TITLE "Bad Girl"
PERFORMER "Blitzspeer"
INDEX 01 15:47:15
TRACK 06 AUDIO
TITLE "Mother Superior"
PERFORMER "Blitzspeer"
INDEX 00 18:50:33
INDEX 01 18:50:45
TRACK 07 AUDIO
TITLE "Man In Black"
PERFORMER "Blitzspeer"
INDEX 00 24:08:40
INDEX 01 24:09:28
TRACK 08 AUDIO
TITLE "Almost Tomorrow"
PERFORMER "Blitzspeer"
INDEX 01 27:31:55
TRACK 09 AUDIO
TITLE "Dead & Dyin'"
PERFORMER "Blitzspeer"
INDEX 01 30:25:43
TRACK 10 AUDIO
TITLE "Can't Lose (What You've Never Had)"
PERFORMER "Blitzspeer"
INDEX 00 33:03:68
INDEX 01 33:04:60
TRACK 11 AUDIO
TITLE "American Dog"
PERFORMER "Blitzspeer"
INDEX 01 37:05:20
TRACK 12 AUDIO
TITLE "hidden track"
PERFORMER "Blitzspeer"
INDEX 00 43:24:39
INDEX 01 43:25:18


Top
 Profile E-mail  
 
 
PostPosted: 22 Aug 2009 
А может смените мне статус?..
User avatar
Joined: 17 Jan 2008
Posts: 872
Lоcаtion: Пенза
Age: 41
Name: Денис
Благодарствуем :thanx: :true: :meloman:


Top
 Profile  
 
 
PostPosted: 22 Aug 2009 
труъ антисионист
User avatar
Joined: 01 Aug 2007
Posts: 4541
Lоcаtion: Откуда и большинство из нас
Age: 38
Name: Дядя Вова
И от меня спасибо!

_________________
Image
Image


Top
 Profile  
 
 
PostPosted: 24 Aug 2009 
Хиппей (support team)
User avatar
Joined: 30 Jul 2007
Posts: 108944
Lоcаtion: Киев (Kyiv, UA)
Age: 45
Name: Andrey
Рома, этот рип с ММТ?
У тебя тут точно нету 12-го (хидден) трэка?

_________________


Top
 Profile E-mail  
 
 
PostPosted: 26 Aug 2009 
udo
User avatar
Joined: 01 Mar 2008
Posts: 2343
Lоcаtion: Краснодар
Age: 48
Name: РОМАН
Scatterbrain wrote:
этот рип с ММТ


хрен его знает , с ММТ качать не умею, наверное с ннм


Top
 Profile E-mail  
 
 
PostPosted: 26 Aug 2009 
Хиппей (support team)
User avatar
Joined: 30 Jul 2007
Posts: 108944
Lоcаtion: Киев (Kyiv, UA)
Age: 45
Name: Andrey
Ага, пасибо...
Ок, добавлю в пост лог и куй, которые лежат в папке с архивом с ММТ (картинок там не было тоже) :pardon:
Ну и судю по размеру, рип таки ММТ-эшный.

_________________


Top
 Profile E-mail  
 
 
PostPosted: 30 Aug 2009 
Хиппей (support team)
User avatar
Joined: 30 Jul 2007
Posts: 108944
Lоcаtion: Киев (Kyiv, UA)
Age: 45
Name: Andrey
Чего-то не понял я этот альбом... :fingal:
Трэша здеть нет точно. Зато присутствует какой-то заунывный медленный и чуть грувастый стиль (по типу стонер-хэви), который и классифицировать сложно :vic: Но две последние вещи всё же понравились.
Явно Ромке опять бас понравился :crazy:

_________________


Top
 Profile E-mail  
 
 
PostPosted: 30 Aug 2009 
А может смените мне статус?..
User avatar
Joined: 17 Jan 2008
Posts: 872
Lоcаtion: Пенза
Age: 41
Name: Денис
Scatterbrain wrote:
Чего-то не понял я этот альбом... :fingal:
Трэша здеть нет точно. Зато присутствует какой-то заунывный медленный и чуть грувастый стиль (по типу стонер-хэви), который и классифицировать сложно :vic: Но две последние вещи всё же понравились.
Явно Ромке опять бас понравился :crazy:

Не,треш у группы есть(концертник даже жестче,как мне показалось),просто он специфического разлива(хеви и кроссовер-треш смешен).Wratchild America или Frantic,чем то схожи с Блитцспир по стилю..А стонер и треш в одном флаконе,в то время это скорее Kinghorse(в большей степени) или Straw Dogs,нежели BLITZSPEER..
Сам я заинтересовался этой группой когда стал копать под загадочный проект
Shrapnel.
viewtopic.php?f=13&t=4006
В итоге,проанализировав отрывочные данные,решил для себя,что Шрапнель похоже,это один из сайдов Блитцспира...Вот и захотелось мне их заслушать...


Top
 Profile  
 
 
PostPosted: 30 Aug 2009 
Хиппей (support team)
User avatar
Joined: 30 Jul 2007
Posts: 108944
Lоcаtion: Киев (Kyiv, UA)
Age: 45
Name: Andrey
klod77 wrote:
Не,треш у группы есть(концертник даже жестче,как мне показалось),просто он специфического разлива(хеви и кроссовер-треш смешен)

Не знаю. Что-то я смены ритма у них не заметил, так что никак кроссовером это назвать не могу. Ну и тем более трэшем.
А вот зальник да, это уже ближе к трэшу. Да это и понятно, на концертах обычно играют все быстрее и жестче, чем в студийном варианте.

_________________


Top
 Profile E-mail  
 
 
PostPosted: 31 Aug 2009 
udo
User avatar
Joined: 01 Mar 2008
Posts: 2343
Lоcаtion: Краснодар
Age: 48
Name: РОМАН
Scatterbrain wrote:
Явно Ромке опять бас понравился

наверное надо послушать :crazy:


Top
 Profile E-mail  
 
 
PostPosted: 01 Sep 2009 
Хиппей (support team)
User avatar
Joined: 30 Jul 2007
Posts: 108944
Lоcаtion: Киев (Kyiv, UA)
Age: 45
Name: Andrey
Кста, Ром, тебе, как любителю Cirith Ungol, альбом должен очень понравиться :crazy:

_________________


Top
 Profile E-mail  
 
Display posts from previous:  Sort by  
Post new topic Reply to topic  [ 11 posts ] 

All times are UTC + 3 hours


Who is online

Users browsing this forum: No registered users and 2 guests


You cannot post new topics in this forum
You cannot reply to topics in this forum
You cannot edit your posts in this forum
You cannot delete your posts in this forum
You cannot post attachments in this forum

Search for:
Яндекс.Метрика
cron
Powered by phpBB © 2000, 2002, 2005, 2007 phpBB Group