\m/ 80's metal \m/

Информационно-аналитический форум "80 см пыли" (In Search We Trust) "У нас никто никуда не спешит"
Me For You - http://me-4u.com
It is currently 17 Dec 2018

All times are UTC + 3 hours

Spoiler
Chat - temporary registration for foreign users (please leave your application here)







Post new topic Reply to topic  [ 23 posts ]  Go to page 1, 2  Next
Author Message
 
PostPosted: 06 Aug 2009 
хард н хэвщик (support team)
User avatar
Joined: 02 Jun 2008
Posts: 16880
Lоcаtion: Н.Новгород
Age: 31
Name: Артем
Image

Big Heat - 1992 - Scenes Of Fire
Формат: FLAC+CUE+Обложки
Источник: lexx66 -> док Биффа -> 80см

1. Monday Morning In The Air 01:20
2. Big Heat 04:02 [view lyrics]
3. Behind The Gates Of Avalon 05:23 [view lyrics]
4. The Dirge 01:26
5. Tears Of The Sky 05:21 [view lyrics]
6. Take Me With You 04:52 [view lyrics]
7. Wild Thing 03:18
8. Shake It Up 04:02 [view lyrics]
9. Open Your Heart 04:53 [view lyrics]
10. The Friend 01:03
11. Little Devil 04:13 [view lyrics]
12. Sometimes It Hurts 03:37 [view lyrics]
Total playing time 42:56

Трушный хард н хэви. Мне понравилось. :true:

LOG
V0.99 prebeta 4 from 23. January 2008

EAC Auslese-Logdatei vom 29. April 2009, 10:27

BIG HEAT / SCENES OF FIRE

Benutztes Laufwerk : _NEC DVD_RW ND-2500A Adapter: 0 ID: 1

Lesemodus : :
: Ja
: Ja
: Nein

Leseoffset Korrektur : : 48
Ьberlesen in das Lead-In und Lead-Out : Nein
Fьlle fehlende Offsetsample mit Stille auf : Ja
Lцsche fьhrende und nachfolgende stille Blцcke : Nein
: Ja
: Installierte externe ASPI Schnittstelle

Benutztes Ausgabeformat : : Interne WAV Routinen
: 44.100 Hz; 16 Bit; Stereo




| | | |
--------------------------------------------
1 | 0:00.32 | 1:21.33 | 32 | 6139
2 | 1:21.65 | 3:55.00 | 6140 | 23764
3 | 5:16.65 | 5:21.67 | 23765 | 47906
4 | 10:38.57 | 1:25.50 | 47907 | 54331
5 | 12:04.32 | 5:18.03 | 54332 | 78184
6 | 17:22.35 | 4:49.42 | 78185 | 99901
7 | 22:12.02 | 3:16.40 | 99902 | 114641
8 | 25:28.42 | 3:57.53 | 114642 | 132469
9 | 29:26.20 | 4:49.22 | 132470 | 154166
10 | 34:15.42 | 1:01.20 | 154167 | 158761
11 | 35:16.62 | 4:10.43 | 158762 | 177554
12 | 39:27.30 | 3:35.27 | 177555 | 193706


Bereichsstatus und Fehler

Gewдhlter Bereich

Dateiname C:\My Music\BIG HEAT - SCENES OF FIRE.wav

Spitzenpegel 100.0 %
Bereichsqualitдt 99.9 %
Kopie CRC 88306054
Kopie OK

Keine Fehler aufgetreten

Ende des Statusreports

CUE
REM GENRE Metal
REM DATE 1993
REM DISCID 930A160C
REM COMMENT "ExactAudioCopy v0.99pb4"
PERFORMER "BIG HEAT"
TITLE "SCENES OF FIRE "
FILE "BIG HEAT - SCENES OF FIRE.flac" WAVE
TRACK 01 AUDIO
TITLE "Monday Morning"
PERFORMER "BIG HEAT"
INDEX 00 00:00:00
INDEX 01 00:00:32
TRACK 02 AUDIO
TITLE "Big Heat"
PERFORMER "BIG HEAT"
INDEX 01 01:21:65
TRACK 03 AUDIO
TITLE "The Gates Of Avalon"
PERFORMER "BIG HEAT"
INDEX 00 05:16:40
INDEX 01 05:16:65
TRACK 04 AUDIO
TITLE "The Dirge"
PERFORMER "BIG HEAT"
INDEX 00 10:37:32
INDEX 01 10:38:57
TRACK 05 AUDIO
TITLE "Tears Of The Sky"
PERFORMER "BIG HEAT"
INDEX 01 12:04:32
TRACK 06 AUDIO
TITLE "Take Me With You"
PERFORMER "BIG HEAT"
INDEX 00 17:21:10
INDEX 01 17:22:35
TRACK 07 AUDIO
TITLE "Wild Thing"
PERFORMER "BIG HEAT"
INDEX 00 22:11:52
INDEX 01 22:12:02
TRACK 08 AUDIO
TITLE "Shake It Up"
PERFORMER "BIG HEAT"
INDEX 00 25:28:17
INDEX 01 25:28:42
TRACK 09 AUDIO
TITLE "Open Up Your Heart"
PERFORMER "BIG HEAT"
INDEX 00 29:24:70
INDEX 01 29:26:20
TRACK 10 AUDIO
TITLE "The Friend"
PERFORMER "BIG HEAT"
INDEX 01 34:15:42
TRACK 11 AUDIO
TITLE "Little Devil"
PERFORMER "BIG HEAT"
INDEX 01 35:16:62
TRACK 12 AUDIO
TITLE "Sometimes It Hurts"
PERFORMER "BIG HEAT"
INDEX 00 39:27:05
INDEX 01 39:27:30


BIG HEAT - SCENES OF FIRE 1993 [LOSSLESS]


Last edited by McKagan on 06 Aug 2009, edited 1 time in total.

Top
 Profile  
 
 
PostPosted: 06 Aug 2009 
Прокъмитолист
User avatar
Joined: 12 Aug 2007
Posts: 6514
Lоcаtion: Санктъ-Петербуркъ
Age: 51
Name: Олекъ
McKagan wrote:
[LOSSELESS]

и как только люди не коверкают такое простое слово :dash: особенно мне нравицо "лузлес" :crazy:

_________________
прокъметол - это музыко, от которово есть прок (ы)


Top
 Profile  
 
 
PostPosted: 06 Aug 2009 
хард н хэвщик (support team)
User avatar
Joined: 02 Jun 2008
Posts: 16880
Lоcаtion: Н.Новгород
Age: 31
Name: Артем
spiralarch wrote:
и как только люди не коверкают такое простое слово

время было три часа ночи, устал, не заметил опечатки :vic:


Last edited by McKagan on 27 Dec 2010, edited 1 time in total.

Top
 Profile  
 
 
PostPosted: 06 Aug 2009 
Хиппей (support team)
User avatar
Joined: 30 Jul 2007
Posts: 108973
Lоcаtion: Киев (Kyiv, UA)
Age: 45
Name: Andrey
Quote:
> 06.08.2009 02:57:12, McKagan
> )
> 06.08.2009 02:59:24, McKagan
> ну шо
> 06.08.2009 02:59:27, McKagan
> иди проверяй
> 06.08.2009 02:59:29, McKagan
> лося выложил

Спасибо :crazy:

зы. Кнопки с лирикой неактивны :(

_________________


Top
 Profile E-mail  
 
 
PostPosted: 14 Aug 2009 
5cm
User avatar
Joined: 05 May 2009
Posts: 52
Lоcаtion: Kherson
Age: 47
Name: Oleg
Спасибо!


Top
 Profile E-mail  
 
 
PostPosted: 06 Jul 2013 
10cm
User avatar
Joined: 03 Aug 2012
Posts: 98
Lоcаtion: Украина Донецк
Age: 59
Name: Владимир
Всем доброе утро!!!
Говорили мне умные люди, что между этим альбомом и вторым огромная пропасть. Я не верил. Ну и зря.
Но тем не менее McKagan большое СПАСИБО за возможность послушать и проследить за эволюцией группы.

_________________
Когда мы все попадем в тюрьму за скачивание музыки, надеюсь нас рассадят по жанрам.


Top
 Profile E-mail  
 
 
PostPosted: 06 Jul 2013 
Хиппей (support team)
User avatar
Joined: 30 Jul 2007
Posts: 108973
Lоcаtion: Киев (Kyiv, UA)
Age: 45
Name: Andrey
Утро бодрое :dance:

Тоже начал слушать этот альбом...

Пока зеркальца:

F-Bit l Narod

_________________


Top
 Profile E-mail  
 
 
PostPosted: 06 Jul 2013 
Хиппей (support team)
User avatar
Joined: 30 Jul 2007
Posts: 108973
Lоcаtion: Киев (Kyiv, UA)
Age: 45
Name: Andrey
А вот и весьма очень даже таки порадовал альбом, неглядючи на его некоторую "расбалсность". Стиль вроде основной ясен - Hard & Heavy, но не всё так просто. Здесь и глэм проскакивает (особенно это заметно по вокальным манерным приколам) и привычный American Hard Rock с гитарным чёсом, а иногда и почти Power Heavy :crazy:

Фишка альбома - ни трэка без интро-вставок :dance:

6/10

_________________


Top
 Profile E-mail  
 
 
PostPosted: 07 Jul 2013 
10cm
User avatar
Joined: 03 Aug 2012
Posts: 98
Lоcаtion: Украина Донецк
Age: 59
Name: Владимир
Возможно, если бы я прослушал этот альбом раньше чем Grand Ominous Dreams, было бы другое восприятие. А так от сильного к мене сильному не совсем правильно.

_________________
Когда мы все попадем в тюрьму за скачивание музыки, надеюсь нас рассадят по жанрам.


Top
 Profile E-mail  
 
 
PostPosted: 07 Jul 2013 
Хиппей (support team)
User avatar
Joined: 30 Jul 2007
Posts: 108973
Lоcаtion: Киев (Kyiv, UA)
Age: 45
Name: Andrey
А я второй и не слушал... :oops:

_________________


Top
 Profile E-mail  
 
 
PostPosted: 12 Jul 2013 
10cm
User avatar
Joined: 03 Aug 2012
Posts: 98
Lоcаtion: Украина Донецк
Age: 59
Name: Владимир
А я второй и не слушал... :oops:

Та, ладно. Олег размещал на ММТ, а я закинул на рутрекер. Откуда тебе взять лучше? Или на ФО залить?

phpBB [youtube]

_________________
Когда мы все попадем в тюрьму за скачивание музыки, надеюсь нас рассадят по жанрам.


Top
 Profile E-mail  
 
 
PostPosted: 12 Jul 2013 
Хиппей (support team)
User avatar
Joined: 30 Jul 2007
Posts: 108973
Lоcаtion: Киев (Kyiv, UA)
Age: 45
Name: Andrey
А мне до лампы откуда =)
Ща в ослике гляну.

_________________


Top
 Profile E-mail  
 
 
PostPosted: 12 Jul 2013 
Хиппей (support team)
User avatar
Joined: 30 Jul 2007
Posts: 108973
Lоcаtion: Киев (Kyiv, UA)
Age: 45
Name: Andrey
Качаю :dance:

_________________


Top
 Profile E-mail  
 
 
PostPosted: 12 Jul 2013 
10cm
User avatar
Joined: 03 Aug 2012
Posts: 98
Lоcаtion: Украина Донецк
Age: 59
Name: Владимир
А есть у кого живой альбом Стигмы - A History in Pain (Live) (2003)?

_________________
Когда мы все попадем в тюрьму за скачивание музыки, надеюсь нас рассадят по жанрам.


Top
 Profile E-mail  
 
 
PostPosted: 12 Jul 2013 
Хиппей (support team)
User avatar
Joined: 30 Jul 2007
Posts: 108973
Lоcаtion: Киев (Kyiv, UA)
Age: 45
Name: Andrey
А чой-то такое? :vic:

_________________


Top
 Profile E-mail  
 
 
PostPosted: 12 Jul 2013 
10cm
User avatar
Joined: 03 Aug 2012
Posts: 98
Lоcаtion: Украина Донецк
Age: 59
Name: Владимир
А чой-то такое? :vic:


Stygma IV - A History in Pain (Live). Это группа, в которую, в следствии эволюции, превратилась Big Heat

_________________
Когда мы все попадем в тюрьму за скачивание музыки, надеюсь нас рассадят по жанрам.


Top
 Profile E-mail  
 
 
PostPosted: 12 Jul 2013 
Хиппей (support team)
User avatar
Joined: 30 Jul 2007
Posts: 108973
Lоcаtion: Киев (Kyiv, UA)
Age: 45
Name: Andrey
Ааа, понял. Ну там явно уже прог начали шпилить :fingal:

_________________


Top
 Profile E-mail  
 
 
PostPosted: 14 Jul 2013 
Хиппей (support team)
User avatar
Joined: 30 Jul 2007
Posts: 108973
Lоcаtion: Киев (Kyiv, UA)
Age: 45
Name: Andrey
Big Heat [1995] [CD] Grand Ominous Dreams [EAC-FLAC] by spiralarch [MeTaLMaDNeSS.TeaM]

Image

Genre: Melodic Power Metal
Location: Austria
Format: flac + cue + log + scans
Size: 562 Mb


Line-up:

Ritchie Krenmaier - vocals
Günter Maier - guitars, keyboard programming
Ali Hilzensauer - bass
Herb Greisberger - drums

    1. Turn Away - 05:05
    2. Spirits Rising - 09:57
    3. The Fool - 09:42
    4. The Blackman Song - 07:38
    5. No Reason - 05:04
    6. Mindraped - 08:36
    7. Tears from the Sky - 05:41
    8. Time Will Tell - 06:37
    9. G.O.D. - 01:00
    10. The Edge - 10:35

    TPT: 01:09:55


F-Bit l Narod

Не зря я чуть не пропустил эту группу, ой не зря. В смысле, хорошо, что не пропустил =)
Великолепная работа почти без проходных или бесполезных песен, которыми часто заполняют пространство на диске. Остальное ( а это процентов 75-80) - хиты :meloman:
По музыке действительно очень разноплановый и мелодичный Power Metal начала 90-х, но... Главная фишка даже не в приколах, творимых на клавишных и гитарах, а в вокальной манере пения солиста группы. Ну и некоторое присутствие прога наличествует, да.
Кабы его (вокалиста) да в нужное время да в группу бы да в Metal Church... Вторая бы точно сейчас не пропала :fingal:

8/10

Временами альбом звучит почти шедеврально, а тембр голоса вокалиста заставляет ронять сухую летнюю слезу.

log
EAC extraction logfile from 29. December 2008, 17:15 for CD
Big Heat / Grand Ominous Dreams

Used drive : _NEC DVD_RW ND-3500AG Adapter: 0 ID: 2
Read mode : Secure with NO C2, accurate stream, disable cache
Read offset correction : 48
Overread into Lead-In and Lead-Out : No

Used output format : Internal WAV Routines
44.100 Hz; 16 Bit; Stereo

Other options :
Fill up missing offset samples with silence : Yes
Delete leading and trailing silent blocks : No
Installed external ASPI interface


Range status and errors
Selected range
Filename E:\spiralarch\Big Heat - Grand Ominous Dreams.wav

Peak level 100.0 %
Range quality 100.0 %
CRC 25A7C4A9
Copy OK

No errors occured

End of status report

cue
REM GENRE "Progressive Metal"
REM DATE 1995
REM DISCID 8310630A
REM COMMENT "ExactAudioCopy v0.95b4"
PERFORMER "Big Heat"
TITLE "Grand Ominous Dreams"
FILE "Big Heat - Grand Ominous Dreams.wav" WAVE
TRACK 01 AUDIO
TITLE "Turn Away"
PERFORMER "Big Heat"
INDEX 01 00:00:00
TRACK 02 AUDIO
TITLE "Spirits Rising"
PERFORMER "Big Heat"
INDEX 00 05:04:15
INDEX 01 05:05:60
TRACK 03 AUDIO
TITLE "The Fool"
PERFORMER "Big Heat"
INDEX 00 15:01:22
INDEX 01 15:03:05
TRACK 04 AUDIO
TITLE "The Blackman Song"
PERFORMER "Big Heat"
INDEX 00 24:42:54
INDEX 01 24:44:40
TRACK 05 AUDIO
TITLE "No Reason"
PERFORMER "Big Heat"
INDEX 00 32:20:62
INDEX 01 32:22:62
TRACK 06 AUDIO
TITLE "Mindraped"
PERFORMER "Big Heat"
INDEX 00 37:24:55
INDEX 01 37:26:47
TRACK 07 AUDIO
TITLE "Tears From The Sky"
PERFORMER "Big Heat"
INDEX 00 46:00:60
INDEX 01 46:02:25
TRACK 08 AUDIO
TITLE "Time Will Tell"
PERFORMER "Big Heat"
INDEX 00 51:41:50
INDEX 01 51:43:30
TRACK 09 AUDIO
TITLE "G.O.D."
PERFORMER "Big Heat"
INDEX 00 58:18:47
INDEX 01 58:20:15
TRACK 10 AUDIO
TITLE "The Edge"
PERFORMER "Big Heat"
INDEX 01 59:18:67

_________________


Top
 Profile E-mail  
 
 
PostPosted: 14 Jul 2013 
ТрэшЭрос
User avatar
Joined: 18 Jul 2011
Posts: 2300
Lоcаtion: Гулькевичи
Age: 43
Name: Александр
Scatterbrain wrote:
Временами альбом звучит почти шедеврально, а тембр голоса вокалиста заставляет ронять сухую летнюю слезу.

Ну-у-у, Саныч, расписал... Качну на пробу, авось и мне войдётъ :meloman:

:thanx:

_________________
Thrash no trash!!!


Top
 Profile E-mail  
 
 
PostPosted: 14 Jul 2013 
10cm
User avatar
Joined: 03 Aug 2012
Posts: 98
Lоcаtion: Украина Донецк
Age: 59
Name: Владимир
Scatterbrain wrote:
Главная фишка даже не в приколах, творимых на клавишных и гитарах, а в вокальной манере пения солиста группы. Ну и некоторое присутствие прога наличествует, да.

Вот и я про то. Вначале я купился на вокал. Ну а потом, уже, стал вдаваться в подробности.

_________________
Когда мы все попадем в тюрьму за скачивание музыки, надеюсь нас рассадят по жанрам.


Top
 Profile E-mail  
 
Display posts from previous:  Sort by  
Post new topic Reply to topic  [ 23 posts ]  Go to page 1, 2  Next

All times are UTC + 3 hours


Who is online

Users browsing this forum: No registered users and 1 guest


You cannot post new topics in this forum
You cannot reply to topics in this forum
You cannot edit your posts in this forum
You cannot delete your posts in this forum
You cannot post attachments in this forum

Search for:
Яндекс.Метрика
Powered by phpBB © 2000, 2002, 2005, 2007 phpBB Group