\m/ 80's metal \m/

Информационно-аналитический форум "80 см пыли" (In Search We Trust) "У нас никто никуда не спешит"
Me For You - http://me-4u.com
It is currently 15 Dec 2018

All times are UTC + 3 hours

Spoiler
Chat - temporary registration for foreign users (please leave your application here)







Post new topic Reply to topic  [ 22 posts ]  Go to page 1, 2  Next
Author Message
 
PostPosted: 03 May 2008 
Хиппей (support team)
User avatar
Joined: 30 Jul 2007
Posts: 108944
Lоcаtion: Киев (Kyiv, UA)
Age: 45
Name: Andrey
Bootlegs - 1989 - W.C. Monster [256]

Image

Genre: Speed Thrash
Location: Iceland
Size: 54.84 Mb

    1. At the End... - 03:57
    2. Void - 02:26
    3. 1 Out of 3 - 02:27
    4. Stairway to Hell - 02:37
    5. Shall I Die - 02:45
    6. Pu - 01:56
    7. W.C. Monster - 04:45
    8. Wake Up - 01:44
    9. What Ever You Like - 03:43
    10. SOD - 01:28
    11. Trash Attack - 02:25

    TPT: 30:13

iFolder
ShareOnall

Экзотический трэшак из Рейкьявика. Несмотря на короткие композиции это все же настоящий трэш, без примеси хардкора :true:


Top
 Profile E-mail  
 
 
PostPosted: 25 Sep 2017 
Хиппей (support team)
User avatar
Joined: 30 Jul 2007
Posts: 108944
Lоcаtion: Киев (Kyiv, UA)
Age: 45
Name: Andrey
Послушал сейчас альбом - хрень какая-то :(

5/10

_________________


Top
 Profile E-mail  
 
 
PostPosted: 25 Sep 2017 
Хиппей (support team)
User avatar
Joined: 30 Jul 2007
Posts: 108944
Lоcаtion: Киев (Kyiv, UA)
Age: 45
Name: Andrey
Вах, пардон.
Это я их второй альбом заслушал =))
Но всё равно значение "хрень" с него не снимаю.
Альбом снова с юмором, но вот скоростей ваще нет :(

Сейчас перезалью сюда л0ся :lloo:

_________________


Top
 Profile E-mail  
 
 
PostPosted: 25 Sep 2017 
Хиппей (support team)
User avatar
Joined: 30 Jul 2007
Posts: 108944
Lоcаtion: Киев (Kyiv, UA)
Age: 45
Name: Andrey
Bootlegs - 1990 - Bootlegs [flac]

Image Image

mirror: Depos l Narod l Drop l M-Cloud


Image Image Image

log
Exact Audio Copy V1.1 from 23. June 2015

Отчёт EAC об извлечении, выполненном 23. июня 2016, 17:10

Bootlegs / Bootlegs

Дисковод: HL-DT-STDVDRAM GTA0N Adapter: 1 ID: 0

Режим чтения : Достоверность
Использование точного потока : Да
Отключение кэша аудио : Да
Использование указателей C2 : Нет

Коррекция смещения при чтении : 102
Способность читать области Lead-in и Lead-out : Нет
Заполнение пропущенных сэмплов тишиной : Да
Удаление блоков с тишиной в начале и конце : Нет
При вычислениях CRC использовались нулевые сэмплы : Да
Интерфейс : Встроенный Win32-интерфейс для Win NT/2000

Выходной формат : Пользовательский кодировщик
Выбранный битрейт : 768 kBit/s
Качество : Высокий
Добавление ID3-тега : Нет
Утилита сжатия : C:\Program Files (x86)\Exact Audio Copy\FLAC\FLAC.EXE
Дополнительные параметры : -6 -V -T "ARTIST=%artist%" -T "TITLE=%title%" -T "ALBUM=%albumtitle%" -T "DATE=%year%" -T "TRACKNUMBER=%tracknr%" -T "GENRE=%genre%" -T "COMMENT=%comment%" -T "BAND=%albuminterpret%" -T "ALBUMARTIST=%albuminterpret%" -T "COMPOSER=%composer%" %haslyrics%--tag-from-file=LYRICS="%lyricsfile%"%haslyrics% -T "DISCNUMBER=%cdnumber%" -T "TOTALDISCS=%totalcds%" -T "TOTALTRACKS=%numtracks%" %hascover%--picture="%coverfile%"%hascover% %source% -o %dest%


TOC извлечённого CD

Трек | Старт | Длительность | Начальный сектор | Конечный сектор
---------------------------------------------------------------------
1 | 0:00.00 | 3:35.73 | 0 | 16197
2 | 3:35.73 | 2:57.71 | 16198 | 29543
3 | 6:33.69 | 3:36.42 | 29544 | 45785
4 | 10:10.36 | 1:40.70 | 45786 | 53355
5 | 11:51.31 | 1:17.36 | 53356 | 59166
6 | 13:08.67 | 4:01.56 | 59167 | 77297
7 | 17:10.48 | 4:19.37 | 77298 | 96759
8 | 21:30.10 | 2:59.28 | 96760 | 110212
9 | 24:29.38 | 4:06.04 | 110213 | 128666
10 | 28:35.42 | 3:43.49 | 128667 | 145440
11 | 32:19.16 | 1:35.19 | 145441 | 152584
12 | 33:54.35 | 2:37.28 | 152585 | 164387
13 | 36:31.63 | 2:28.15 | 164388 | 175502
14 | 39:00.03 | 1:11.45 | 175503 | 180872
15 | 40:11.48 | 3:50.45 | 180873 | 198167
16 | 44:02.18 | 3:47.33 | 198168 | 215225
17 | 47:49.51 | 1:45.02 | 215226 | 223102
18 | 49:34.53 | 1:20.29 | 223103 | 229131
19 | 50:55.07 | 2:38.69 | 229132 | 241050
20 | 53:34.01 | 1:25.26 | 241051 | 247451
21 | 54:59.27 | 2:45.33 | 247452 | 259859


Характеристики диапазона извлечения и сообщения об ошибках

Выбранный диапазон

Имя файла C:\Users\магазин\Music\Bootlegs - Bootlegs.wav

Пиковый уровень 98.9 %
Скорость извлечения 4.2 X
Качество диапазона 100.0 %
CRC копии C9665800
Копирование... OK

Ошибок не произошло


AccurateRip: сводка

Трек 1 отсутствует в базе данных
Трек 2 отсутствует в базе данных
Трек 3 отсутствует в базе данных
Трек 4 отсутствует в базе данных
Трек 5 отсутствует в базе данных
Трек 6 отсутствует в базе данных
Трек 7 отсутствует в базе данных
Трек 8 отсутствует в базе данных
Трек 9 отсутствует в базе данных
Трек 10 отсутствует в базе данных
Трек 11 отсутствует в базе данных
Трек 12 отсутствует в базе данных
Трек 13 отсутствует в базе данных
Трек 14 отсутствует в базе данных
Трек 15 отсутствует в базе данных
Трек 16 отсутствует в базе данных
Трек 17 отсутствует в базе данных
Трек 18 отсутствует в базе данных
Трек 19 отсутствует в базе данных
Трек 20 отсутствует в базе данных
Трек 21 отсутствует в базе данных

Ни одного трека нет в базе AccurateRip

Конец отчёта

---- CUETools DB Plugin V2.1.6

[CTDB TOCID: gY8pOJu2fwF43Q4_KuZSA5pmH2M-] found
Submit result: gY8pOJu2fwF43Q4_KuZSA5pmH2M- has been confirmed
Track | CTDB Status
1 | (1/1) Accurately ripped
2 | (1/1) Accurately ripped
3 | (1/1) Accurately ripped
4 | (1/1) Accurately ripped
5 | (1/1) Accurately ripped
6 | (1/1) Accurately ripped
7 | (1/1) Accurately ripped
8 | (1/1) Accurately ripped
9 | (1/1) Accurately ripped
10 | (1/1) Accurately ripped
11 | (1/1) Accurately ripped
12 | (1/1) Accurately ripped
13 | (1/1) Accurately ripped
14 | (1/1) Accurately ripped
15 | (1/1) Accurately ripped
16 | (1/1) Accurately ripped
17 | (1/1) Accurately ripped
18 | (1/1) Accurately ripped
19 | (1/1) Accurately ripped
20 | (1/1) Accurately ripped
21 | (1/1) Accurately ripped

cue
REM GENRE "Thrash Metal"
REM DATE 1990
REM DISCID 0D0D8815
REM COMMENT "ExactAudioCopy v1.1"
PERFORMER "Bootlegs"
TITLE "Bootlegs"
FILE "Bootlegs - Bootlegs.flac" WAVE
TRACK 01 AUDIO
TITLE "Forleikur"
PERFORMER "Bootlegs"
INDEX 01 00:00:00
TRACK 02 AUDIO
TITLE "Óljóslega Stjórnlaus"
PERFORMER "Bootlegs"
INDEX 00 03:34:73
INDEX 01 03:35:73
TRACK 03 AUDIO
TITLE "Blá Saklaus"
PERFORMER "Bootlegs"
INDEX 00 06:32:69
INDEX 01 06:33:69
TRACK 04 AUDIO
TITLE "Augun"
PERFORMER "Bootlegs"
INDEX 00 10:09:36
INDEX 01 10:10:36
TRACK 05 AUDIO
TITLE "Vögguvísa"
PERFORMER "Bootlegs"
INDEX 00 11:50:31
INDEX 01 11:51:31
TRACK 06 AUDIO
TITLE "Eymd"
PERFORMER "Bootlegs"
INDEX 00 13:07:67
INDEX 01 13:08:67
TRACK 07 AUDIO
TITLE "Mesti & Besti"
PERFORMER "Bootlegs"
INDEX 00 17:09:48
INDEX 01 17:10:48
TRACK 08 AUDIO
TITLE "Tippikal"
PERFORMER "Bootlegs"
INDEX 00 21:29:10
INDEX 01 21:30:10
TRACK 09 AUDIO
TITLE "Við Dauðans Dyr"
PERFORMER "Bootlegs"
INDEX 00 24:28:38
INDEX 01 24:29:38
TRACK 10 AUDIO
TITLE "Gamli Nói"
PERFORMER "Bootlegs"
INDEX 00 28:34:42
INDEX 01 28:35:42
TRACK 11 AUDIO
TITLE "SOD 2"
PERFORMER "Bootlegs"
INDEX 00 32:18:16
INDEX 01 32:19:16
TRACK 12 AUDIO
TITLE "Sein"
PERFORMER "Bootlegs"
INDEX 00 33:53:35
INDEX 01 33:54:35
TRACK 13 AUDIO
TITLE "Jólarokk"
PERFORMER "Bootlegs"
INDEX 00 36:30:63
INDEX 01 36:31:63
TRACK 14 AUDIO
TITLE "Fuck Off"
PERFORMER "Bootlegs"
INDEX 00 38:59:03
INDEX 01 39:00:03
TRACK 15 AUDIO
TITLE "Gamli Nói (bonus track Live 2006)"
PERFORMER "Bootlegs"
INDEX 00 40:10:48
INDEX 01 40:11:48
TRACK 16 AUDIO
TITLE "Street Lover (bonus track Live 2006)"
PERFORMER "Bootlegs"
INDEX 01 44:02:18
TRACK 17 AUDIO
TITLE "Augun (bonus track Live 2006)"
PERFORMER "Bootlegs"
INDEX 01 47:49:51
TRACK 18 AUDIO
TITLE "Fuck Off (bonus track Live 2006)"
PERFORMER "Bootlegs"
INDEX 01 49:34:53
TRACK 19 AUDIO
TITLE "Óljóslega Stjórnlaus (bonus track Live 2006)"
PERFORMER "Bootlegs"
INDEX 01 50:55:07
TRACK 20 AUDIO
TITLE "SOD (bonus track live 2006)"
PERFORMER "Bootlegs"
INDEX 01 53:34:01
TRACK 21 AUDIO
TITLE "Thrash Attack (bonus track live 2006)"
PERFORMER "Bootlegs"
INDEX 01 54:59:27

_________________


Top
 Profile E-mail  
 
 
PostPosted: 25 Sep 2017 
Хиппей (support team)
User avatar
Joined: 30 Jul 2007
Posts: 108944
Lоcаtion: Киев (Kyiv, UA)
Age: 45
Name: Andrey
Да, первый альбом гораздо интереснее - переслушал снова, да ещё и с бонусами с реюнион-шоу.

6+/10

_________________


Top
 Profile E-mail  
 
 
PostPosted: 25 Sep 2017 
Хиппей (support team)
User avatar
Joined: 30 Jul 2007
Posts: 108944
Lоcаtion: Киев (Kyiv, UA)
Age: 45
Name: Andrey
Bootlegs - 1988 - WC Monster [flac]

Image Image

mirror: Depos l M-Cloud l Narod l Drop

Image Image Image

log
Exact Audio Copy V1.1 from 23. June 2015

Отчёт EAC об извлечении, выполненном 23. июня 2016, 16:50

Bootlegs / WC Monster

Дисковод: HL-DT-STDVDRAM GTA0N Adapter: 1 ID: 0

Режим чтения : Достоверность
Использование точного потока : Да
Отключение кэша аудио : Да
Использование указателей C2 : Нет

Коррекция смещения при чтении : 102
Способность читать области Lead-in и Lead-out : Нет
Заполнение пропущенных сэмплов тишиной : Да
Удаление блоков с тишиной в начале и конце : Нет
При вычислениях CRC использовались нулевые сэмплы : Да
Интерфейс : Встроенный Win32-интерфейс для Win NT/2000

Выходной формат : Пользовательский кодировщик
Выбранный битрейт : 768 kBit/s
Качество : Высокий
Добавление ID3-тега : Нет
Утилита сжатия : C:\Program Files (x86)\Exact Audio Copy\FLAC\FLAC.EXE
Дополнительные параметры : -6 -V -T "ARTIST=%artist%" -T "TITLE=%title%" -T "ALBUM=%albumtitle%" -T "DATE=%year%" -T "TRACKNUMBER=%tracknr%" -T "GENRE=%genre%" -T "COMMENT=%comment%" -T "BAND=%albuminterpret%" -T "ALBUMARTIST=%albuminterpret%" -T "COMPOSER=%composer%" %haslyrics%--tag-from-file=LYRICS="%lyricsfile%"%haslyrics% -T "DISCNUMBER=%cdnumber%" -T "TOTALDISCS=%totalcds%" -T "TOTALTRACKS=%numtracks%" %hascover%--picture="%coverfile%"%hascover% %source% -o %dest%


TOC извлечённого CD

Трек | Старт | Длительность | Начальный сектор | Конечный сектор
---------------------------------------------------------------------
1 | 0:00.00 | 3:57.41 | 0 | 17815
2 | 3:57.41 | 2:26.54 | 17816 | 28819
3 | 6:24.20 | 2:27.55 | 28820 | 39899
4 | 8:52.00 | 2:37.56 | 39900 | 51730
5 | 11:29.56 | 2:46.12 | 51731 | 64192
6 | 14:15.68 | 1:56.57 | 64193 | 72949
7 | 16:12.50 | 4:46.29 | 72950 | 94428
8 | 20:59.04 | 1:46.01 | 94429 | 102379
9 | 22:45.05 | 3:43.52 | 102380 | 119156
10 | 26:28.57 | 1:29.43 | 119157 | 125874
11 | 27:58.25 | 2:26.23 | 125875 | 136847
12 | 30:24.48 | 2:26.67 | 136848 | 147864
13 | 32:51.40 | 1:41.63 | 147865 | 155502
14 | 34:33.28 | 2:55.31 | 155503 | 168658
15 | 37:28.59 | 2:54.26 | 168659 | 181734
16 | 40:23.10 | 2:10.44 | 181735 | 191528
17 | 42:33.54 | 4:49.45 | 191529 | 213248
18 | 47:23.24 | 3:51.21 | 213249 | 230594


Характеристики диапазона извлечения и сообщения об ошибках

Выбранный диапазон

Имя файла C:\Users\магазин\Music\Bootlegs - WC Monster.wav

Пиковый уровень 98.9 %
Скорость извлечения 4.1 X
Качество диапазона 100.0 %
CRC копии 546CE7E6
Копирование... OK

Ошибок не произошло


AccurateRip: сводка

Трек 1 отсутствует в базе данных
Трек 2 отсутствует в базе данных
Трек 3 отсутствует в базе данных
Трек 4 отсутствует в базе данных
Трек 5 отсутствует в базе данных
Трек 6 отсутствует в базе данных
Трек 7 отсутствует в базе данных
Трек 8 отсутствует в базе данных
Трек 9 отсутствует в базе данных
Трек 10 отсутствует в базе данных
Трек 11 отсутствует в базе данных
Трек 12 отсутствует в базе данных
Трек 13 отсутствует в базе данных
Трек 14 отсутствует в базе данных
Трек 15 отсутствует в базе данных
Трек 16 отсутствует в базе данных
Трек 17 отсутствует в базе данных
Трек 18 отсутствует в базе данных

Ни одного трека нет в базе AccurateRip

Конец отчёта

---- CUETools DB Plugin V2.1.6

[CTDB TOCID: .QGizsIzddOCKTXlTAVfvCtTSYQ-] found
Submit result: .QGizsIzddOCKTXlTAVfvCtTSYQ- has been confirmed
Track | CTDB Status
1 | (1/1) Accurately ripped
2 | (1/1) Accurately ripped
3 | (1/1) Accurately ripped
4 | (1/1) Accurately ripped
5 | (1/1) Accurately ripped
6 | (1/1) Accurately ripped
7 | (1/1) Accurately ripped
8 | (1/1) Accurately ripped
9 | (1/1) Accurately ripped
10 | (1/1) Accurately ripped
11 | (1/1) Accurately ripped
12 | (1/1) Accurately ripped
13 | (1/1) Accurately ripped
14 | (1/1) Accurately ripped
15 | (1/1) Accurately ripped
16 | (1/1) Accurately ripped
17 | (1/1) Accurately ripped
18 | (1/1) Accurately ripped

сue
REM GENRE "Thrash Metal"
REM DATE 1989
REM DISCID 0C0C0212
REM COMMENT "ExactAudioCopy v1.1"
PERFORMER "Bootlegs"
TITLE "WC Monster"
FILE "Bootlegs - WC Monster.flac" WAVE
TRACK 01 AUDIO
TITLE "At the End..."
PERFORMER "Bootlegs"
INDEX 01 00:00:00
TRACK 02 AUDIO
TITLE "Void"
PERFORMER "Bootlegs"
INDEX 00 03:56:41
INDEX 01 03:57:41
TRACK 03 AUDIO
TITLE "1 Out of 3"
PERFORMER "Bootlegs"
INDEX 00 06:23:20
INDEX 01 06:24:20
TRACK 04 AUDIO
TITLE "Stairway to Hell"
PERFORMER "Bootlegs"
INDEX 00 08:51:00
INDEX 01 08:52:00
TRACK 05 AUDIO
TITLE "Shall I Die"
PERFORMER "Bootlegs"
INDEX 00 11:28:56
INDEX 01 11:29:56
TRACK 06 AUDIO
TITLE "рÚ"
PERFORMER "Bootlegs"
INDEX 00 14:14:68
INDEX 01 14:15:68
TRACK 07 AUDIO
TITLE "W.C. Monster"
PERFORMER "Bootlegs"
INDEX 00 16:11:50
INDEX 01 16:12:50
TRACK 08 AUDIO
TITLE "Wake Up"
PERFORMER "Bootlegs"
INDEX 00 20:58:04
INDEX 01 20:59:04
TRACK 09 AUDIO
TITLE "What Ever You Like"
PERFORMER "Bootlegs"
INDEX 00 22:44:05
INDEX 01 22:45:05
TRACK 10 AUDIO
TITLE "SOD"
PERFORMER "Bootlegs"
INDEX 00 26:27:57
INDEX 01 26:28:57
TRACK 11 AUDIO
TITLE "Trash Attack"
PERFORMER "Bootlegs"
INDEX 00 27:57:25
INDEX 01 27:58:25
TRACK 12 AUDIO
TITLE "Void (bonus track live 2006)"
PERFORMER "Bootlegs"
INDEX 00 30:23:48
INDEX 01 30:24:48
TRACK 13 AUDIO
TITLE "Wake Up (bonus track live 2006)"
PERFORMER "Bootlegs"
INDEX 00 32:50:40
INDEX 01 32:51:40
TRACK 14 AUDIO
TITLE "Shall I Die (bonus track live 2006)"
PERFORMER "Bootlegs"
INDEX 00 34:32:28
INDEX 01 34:33:28
TRACK 15 AUDIO
TITLE "Wall (bonus track live 2006)"
PERFORMER "Bootlegs"
INDEX 00 37:27:59
INDEX 01 37:28:59
TRACK 16 AUDIO
TITLE "рÚ (bonus track live 2006)"
PERFORMER "Bootlegs"
INDEX 01 40:23:10
TRACK 17 AUDIO
TITLE "W.C. Monster (bonus track live 2006)"
PERFORMER "Bootlegs"
INDEX 01 42:33:54
TRACK 18 AUDIO
TITLE "At the End (bonus track live 2006)"
PERFORMER "Bootlegs"
INDEX 01 47:23:24

_________________


Top
 Profile E-mail  
 
 
PostPosted: 25 Sep 2017 
Доктор энтомологии
User avatar
Joined: 22 Jan 2009
Posts: 9488
Lоcаtion: Даугавпилс
Age: 43
Name: Алексей
Прикольно. Где-то тут на форуме была группа такая Vinyl :dance:


Top
 Profile  
 
 
PostPosted: 25 Sep 2017 
Хиппей (support team)
User avatar
Joined: 30 Jul 2007
Posts: 108944
Lоcаtion: Киев (Kyiv, UA)
Age: 45
Name: Andrey
Осталось найти ещё группы Cassette & Vertak :slo:

_________________


Top
 Profile E-mail  
 
 
PostPosted: 26 Sep 2017 
Я набрал 1000 сообщений!
Joined: 09 Jul 2008
Posts: 2486
Age: 45
Name: Сергей
проще всего ищутся группы а ля polniy otstoy, таких тут немеряно


Top
 Profile  
 
 
PostPosted: 26 Sep 2017 
Хиппей (support team)
User avatar
Joined: 30 Jul 2007
Posts: 108944
Lоcаtion: Киев (Kyiv, UA)
Age: 45
Name: Andrey
Доброе весеннее утро, Серёг :ok:

_________________


Top
 Profile E-mail  
 
 
PostPosted: 26 Sep 2017 
Я набрал 1000 сообщений!
Joined: 09 Jul 2008
Posts: 2486
Age: 45
Name: Сергей
не, ночь пока


Top
 Profile  
 
 
PostPosted: 26 Sep 2017 
Хиппей (support team)
User avatar
Joined: 30 Jul 2007
Posts: 108944
Lоcаtion: Киев (Kyiv, UA)
Age: 45
Name: Andrey
Ты спишь, у тебя хороший сон, у тебя хороший стул :kro:

_________________


Top
 Profile E-mail  
 
 
PostPosted: 26 Sep 2017 
Я набрал 1000 сообщений!
Joined: 09 Jul 2008
Posts: 2486
Age: 45
Name: Сергей
ну, твои кошмары - сугубо твое личное дело.. )


Top
 Profile  
 
 
PostPosted: 26 Sep 2017 
Хиппей (support team)
User avatar
Joined: 30 Jul 2007
Posts: 108944
Lоcаtion: Киев (Kyiv, UA)
Age: 45
Name: Andrey
У тебя плохой стул? :(
А стол? :mos1:


_________________


Top
 Profile E-mail  
 
 
PostPosted: 26 Sep 2017 
Я набрал 1000 сообщений!
Joined: 09 Jul 2008
Posts: 2486
Age: 45
Name: Сергей
ну, может, тебе так спит(ь)ся лучше


Top
 Profile  
 
 
PostPosted: 26 Sep 2017 
консэрваторъ
Joined: 11 Aug 2007
Posts: 16327
Lоcаtion: Псков
Age: 44
Name: Сергей
Как тебе песня с Лулу сильно в мозг въелась, хрен выковыришь теперь... :benya:

_________________
THRASH 'EM ALL


Top
 Profile E-mail  
 
 
PostPosted: 26 Sep 2017 
Доктор энтомологии
User avatar
Joined: 22 Jan 2009
Posts: 9488
Lоcаtion: Даугавпилс
Age: 43
Name: Алексей
Включай викинг-фольк и жисть наладится :dance:


Top
 Profile  
 
 
PostPosted: 26 Sep 2017 
Хиппей (support team)
User avatar
Joined: 30 Jul 2007
Posts: 108944
Lоcаtion: Киев (Kyiv, UA)
Age: 45
Name: Andrey
Как тебе песня с Лулу сильно в мозг въелась, хрен выковыришь теперь... :benya:

О, а про стол это и есть про ЛуЛу? :shok:

_________________


Top
 Profile E-mail  
 
 
PostPosted: 26 Sep 2017 
консэрваторъ
Joined: 11 Aug 2007
Posts: 16327
Lоcаtion: Псков
Age: 44
Name: Сергей
Угу... :pardon:

_________________
THRASH 'EM ALL


Top
 Profile E-mail  
 
 
PostPosted: 27 Sep 2017 
Хиппей (support team)
User avatar
Joined: 30 Jul 2007
Posts: 108944
Lоcаtion: Киев (Kyiv, UA)
Age: 45
Name: Andrey
Весь альбом про стол? Да не верю :nea:

_________________


Top
 Profile E-mail  
 
Display posts from previous:  Sort by  
Post new topic Reply to topic  [ 22 posts ]  Go to page 1, 2  Next

All times are UTC + 3 hours


Who is online

Users browsing this forum: No registered users and 3 guests


You cannot post new topics in this forum
You cannot reply to topics in this forum
You cannot edit your posts in this forum
You cannot delete your posts in this forum
You cannot post attachments in this forum

Search for:
Яндекс.Метрика
Powered by phpBB © 2000, 2002, 2005, 2007 phpBB Group