\m/ 80's metal \m/

Информационно-аналитический форум "80 см пыли" (In Search We Trust) "У нас никто никуда не спешит"
Me For You - http://me-4u.com
It is currently 17 Oct 2018

All times are UTC + 3 hours

Spoiler
Chat - temporary registration for foreign users (please leave your application here)







Post new topic Reply to topic  [ 51 posts ]  Go to page Previous  1, 2, 3  Next
Author Message
 
PostPosted: 30 May 2009 
udo
User avatar
Joined: 01 Mar 2008
Posts: 2343
Lоcаtion: Краснодар
Age: 47
Name: РОМАН
* Перезалейте, пожалуйста: | Re-up please:
Blacksmith - 1986 - Blacksmith [EP] - 1989 - Fire From Within


Image

Image


<Year:> 1986/1989
<Style:> power
<Country:> United States of America (Albany, New York)
<Format:> APE+CUE
<Size:> 428 mb

http://spinoza.ifolder.ru/12357874
http://spinoza.ifolder.ru/12359197
http://spinoza.ifolder.ru/12360699
http://spinoza.ifolder.ru/12361672
http://spinoza.ifolder.ru/12362272


Top
 Profile E-mail  
 
 
PostPosted: 01 Nov 2009 
Прокъмитолист
User avatar
Joined: 12 Aug 2007
Posts: 6487
Lоcаtion: Санктъ-Петербуркъ
Age: 50
Name: Олекъ
ага. нам бы отпилить первые 4 вещи. Ром, ты ведь помнишь как разжимать лося в вав? разожми его и скопируй сюда точное имя полученного вава. именно ТОЧНОЕ, чтобы косяков не было потом. хотя конечно я бы рекомендовал полученный вав переименовать как-нибудь покороче (например вот так: Blacksmith-86-89.wav), но это на твое усмотрение.

_________________
прокъметол - это музыко, от которово есть прок (ы)


Top
 Profile  
 
 
PostPosted: 01 Nov 2009 
udo
User avatar
Joined: 01 Mar 2008
Posts: 2343
Lоcаtion: Краснодар
Age: 47
Name: РОМАН
получился вот такой файл,
Blacksmith - 1986 - Blacksmith [EP] - 1989 - Fire From Within
если надо переиминовать щас сделаем


Top
 Profile E-mail  
 
 
PostPosted: 01 Nov 2009 
Прокъмитолист
User avatar
Joined: 12 Aug 2007
Posts: 6487
Lоcаtion: Санктъ-Петербуркъ
Age: 50
Name: Олекъ
в общем, фишка в чем: имя твоего вава должно точно соответствовать, тому что написано в куе (я именно поэтому всегда советую переименовывать файл покороче - так меньше возможностей ошибиться).

если ты оставляешь имя файла таким, какое оно есть, то используй вот такой куй для нарезки:

куй для разделения вава пополам (исходное имя файла)
Code:
PERFORMER "Blacksmith"
TITLE "Blacksmith [EP] / Fire From Within"
FILE "Blacksmith - 1986 - Blacksmith [EP] - 1989 - Fire From Within.wav" WAVE
  TRACK 01 AUDIO
    TITLE "Blacksmith EP"
    PERFORMER "Blacksmith"
    INDEX 01 00:00:00
  TRACK 02 AUDIO
    TITLE "Fire From Within"
    PERFORMER "Blacksmith"
    INDEX 01 21:19:30

если ты как-то переименуешь вав (например: Blacksmith-86-89.wav), то соответственно надо будет поправить куй:

куй для разделения вава пополам (альтернативное имя файла)
Code:
PERFORMER "Blacksmith"
TITLE "Blacksmith [EP] / Fire From Within"
FILE "Blacksmith-86-89.wav" WAVE
  TRACK 01 AUDIO
    TITLE "Blacksmith EP"
    PERFORMER "Blacksmith"
    INDEX 01 00:00:00
  TRACK 02 AUDIO
    TITLE "Fire From Within"
    PERFORMER "Blacksmith"
    INDEX 01 21:19:30


скопируй нужный куй в блокнот и сохрани, поменяв расширение на *.cue
либо просто скопируй тот куй, что у тебя есть в другую папку (чтобы исходник остался без изменений) и замени весь текст в нем на новый - и сохрани.

теперь пилим наш вав ЕАК-ом с помощью этого нового куя: в ЕАК-е - Tools - Split WAV By CUE Sheet - With Gaps (указываем ЕАК-у наш вав, и потом этот новый куй). получим два вава - нам будет нужен первый из них.

_________________
прокъметол - это музыко, от которово есть прок (ы)


Top
 Profile  
 
 
PostPosted: 02 Nov 2009 
5-speed satisfactor
User avatar
Joined: 16 Feb 2009
Posts: 3604
Lоcаtion: New York, USA
Age: 40
Name: Leonid
Откуда можно скачать мини альбом?

_________________
Death rules! Metal to all who oppose!


Top
 Profile  
 
 
PostPosted: 02 Nov 2009 
Прокъмитолист
User avatar
Joined: 12 Aug 2007
Posts: 6487
Lоcаtion: Санктъ-Петербуркъ
Age: 50
Name: Олекъ
metaleonid wrote:
Откуда можно скачать мини альбом?

пока ниоткуда. вот если у Романа все получится с распиливанием, и он его куда-нибудь зальет - тогда покачаем :pardon:

_________________
прокъметол - это музыко, от которово есть прок (ы)


Top
 Profile  
 
 
PostPosted: 02 Nov 2009 
udo
User avatar
Joined: 01 Mar 2008
Posts: 2343
Lоcаtion: Краснодар
Age: 47
Name: РОМАН
spiralarch wrote:
все получится с распиливанием

сейчас духом соберусь


Top
 Profile E-mail  
 
 
PostPosted: 02 Nov 2009 
5-speed satisfactor
User avatar
Joined: 16 Feb 2009
Posts: 3604
Lоcаtion: New York, USA
Age: 40
Name: Leonid
А чего пилить нужно? Есть лось мини + Fire From Within? Залей весь, я распилю. Спасибо.

--Лёня

_________________
Death rules! Metal to all who oppose!


Top
 Profile  
 
 
PostPosted: 02 Nov 2009 
Прокъмитолист
User avatar
Joined: 12 Aug 2007
Posts: 6487
Lоcаtion: Санктъ-Петербуркъ
Age: 50
Name: Олекъ
хотел сказать, что нераспиленный на первой странице топика, а посмотрел - ссылки уже дохлые.

Ром, если тебе проще залить целого лося, чем пилить его, то может так тогда и сделаем? а Леонид отпилит потом нужный нам миник.

_________________
прокъметол - это музыко, от которово есть прок (ы)


Top
 Profile  
 
 
PostPosted: 12 Nov 2009 
udo
User avatar
Joined: 01 Mar 2008
Posts: 2343
Lоcаtion: Краснодар
Age: 47
Name: РОМАН
ЗДЕСЬ http://www.megaupload.com/?d=SZA909GY
ПЕРЕЗАЛИЛ ЦЕЛОГО


Top
 Profile E-mail  
 
 
PostPosted: 12 Nov 2009 
Прокъмитолист
User avatar
Joined: 12 Aug 2007
Posts: 6487
Lоcаtion: Санктъ-Петербуркъ
Age: 50
Name: Олекъ
спасибо, Рома! :thanx: ждем теперь Леню с бензопилой :dance:

_________________
прокъметол - это музыко, от которово есть прок (ы)


Top
 Profile  
 
 
PostPosted: 12 Nov 2009 
Хиппей (support team)
User avatar
Joined: 30 Jul 2007
Posts: 106935
Lоcаtion: Киев (Kyiv, UA)
Age: 45
Name: Andrey
Quote:
Файл, который вы пытаетесь открыть, временно недоступен

Мега сжирает файлы :shok:

_________________


Top
 Profile E-mail  
 
 
PostPosted: 12 Nov 2009 
udo
User avatar
Joined: 01 Mar 2008
Posts: 2343
Lоcаtion: Краснодар
Age: 47
Name: РОМАН
Scatterbrain wrote:
Мега сжирает файлы

МОЖ ВЫПЛЮНЕТ


Top
 Profile E-mail  
 
 
PostPosted: 12 Nov 2009 
Хиппей (support team)
User avatar
Joined: 30 Jul 2007
Posts: 106935
Lоcаtion: Киев (Kyiv, UA)
Age: 45
Name: Andrey
Ура, просралась :dance: Спасибо! :thanx:

_________________


Top
 Profile E-mail  
 
 
PostPosted: 13 Nov 2009 
5-speed satisfactor
User avatar
Joined: 16 Feb 2009
Posts: 3604
Lоcаtion: New York, USA
Age: 40
Name: Leonid
Гружу. A 1-ая часть (Fire From Within) это такой же как у меня или другой мастеринг? Если такой же как у меня, нет проблем посчитать количество семплов в моей и просто обрубить.

_________________
Death rules! Metal to all who oppose!


Top
 Profile  
 
 
PostPosted: 13 Nov 2009 
udo
User avatar
Joined: 01 Mar 2008
Posts: 2343
Lоcаtion: Краснодар
Age: 47
Name: РОМАН
metaleonid wrote:
Гружу. A 1-ая часть (Fire From Within) это такой же как у меня или другой мастеринг? Если такой же как у меня, нет проблем посчитать количество семплов в моей и просто обрубить.

ЭТО К КОМУ ВОПРОС?


Top
 Profile E-mail  
 
 
PostPosted: 16 Nov 2009 
5-speed satisfactor
User avatar
Joined: 16 Feb 2009
Posts: 3604
Lоcаtion: New York, USA
Age: 40
Name: Leonid
Ребята. А фиглиш там пилить? Там же пре-гэпов вообще нет. Берешь EAC и запихиваешь туда wav file путем Tools->Split WAV by CUE sheet->With Gaps.


Получаешь индивидуальные WAV файлы, ну и следуюший
куй
PERFORMER "Blacksmith"
TITLE "Blacksmith [EP] / Fire From Within"
FILE "C:\Documents and Settings\leonid\My Documents\My Music\ToCD\Blacksmith - 1986 - Blacksmith [EP] - 1989 - Fire From Within\Blacksmith - 1986 - Blacksmith [EP] - 1989 - Fire From Within\01 The Bone March , Tower Of London.wav" WAVE
TRACK 01 AUDIO
TITLE "The Bone March / Tower Of London"
PERFORMER "Blacksmith"
INDEX 01 00:00:00
FILE "C:\Documents and Settings\leonid\My Documents\My Music\ToCD\Blacksmith - 1986 - Blacksmith [EP] - 1989 - Fire From Within\Blacksmith - 1986 - Blacksmith [EP] - 1989 - Fire From Within\02 Rock Hard.wav" WAVE
TRACK 02 AUDIO
TITLE "Rock Hard"
PERFORMER "Blacksmith"
INDEX 01 00:00:00
FILE "C:\Documents and Settings\leonid\My Documents\My Music\ToCD\Blacksmith - 1986 - Blacksmith [EP] - 1989 - Fire From Within\Blacksmith - 1986 - Blacksmith [EP] - 1989 - Fire From Within\03 Louder Than Hell.wav" WAVE
TRACK 03 AUDIO
TITLE "Louder Than Hell"
PERFORMER "Blacksmith"
INDEX 01 00:00:00
FILE "C:\Documents and Settings\leonid\My Documents\My Music\ToCD\Blacksmith - 1986 - Blacksmith [EP] - 1989 - Fire From Within\Blacksmith - 1986 - Blacksmith [EP] - 1989 - Fire From Within\04 Blacksmith.wav" WAVE
TRACK 04 AUDIO
TITLE "Blacksmith"
PERFORMER "Blacksmith"
INDEX 01 00:00:00
FILE "C:\Documents and Settings\leonid\My Documents\My Music\ToCD\Blacksmith - 1986 - Blacksmith [EP] - 1989 - Fire From Within\Blacksmith - 1986 - Blacksmith [EP] - 1989 - Fire From Within\05 The Beast.wav" WAVE
TRACK 05 AUDIO
TITLE "The Beast"
PERFORMER "Blacksmith"
INDEX 01 00:00:00
FILE "C:\Documents and Settings\leonid\My Documents\My Music\ToCD\Blacksmith - 1986 - Blacksmith [EP] - 1989 - Fire From Within\Blacksmith - 1986 - Blacksmith [EP] - 1989 - Fire From Within\06 House.wav" WAVE
TRACK 06 AUDIO
TITLE "House"
PERFORMER "Blacksmith"
INDEX 01 00:00:00
FILE "C:\Documents and Settings\leonid\My Documents\My Music\ToCD\Blacksmith - 1986 - Blacksmith [EP] - 1989 - Fire From Within\Blacksmith - 1986 - Blacksmith [EP] - 1989 - Fire From Within\07 Louder Than Hell.wav" WAVE
TRACK 07 AUDIO
TITLE "Louder Than Hell"
PERFORMER "Blacksmith"
INDEX 01 00:00:00
FILE "C:\Documents and Settings\leonid\My Documents\My Music\ToCD\Blacksmith - 1986 - Blacksmith [EP] - 1989 - Fire From Within\Blacksmith - 1986 - Blacksmith [EP] - 1989 - Fire From Within\08 A Taste Of Darkness.wav" WAVE
TRACK 08 AUDIO
TITLE "A Taste Of Darkness"
PERFORMER "Blacksmith"
INDEX 01 00:00:00
FILE "C:\Documents and Settings\leonid\My Documents\My Music\ToCD\Blacksmith - 1986 - Blacksmith [EP] - 1989 - Fire From Within\Blacksmith - 1986 - Blacksmith [EP] - 1989 - Fire From Within\09 The Bonemarch , Tower Of London.wav" WAVE
TRACK 09 AUDIO
TITLE "The Bonemarch / Tower Of London"
PERFORMER "Blacksmith"
INDEX 01 00:00:00
FILE "C:\Documents and Settings\leonid\My Documents\My Music\ToCD\Blacksmith - 1986 - Blacksmith [EP] - 1989 - Fire From Within\Blacksmith - 1986 - Blacksmith [EP] - 1989 - Fire From Within\10 Theatres Des Vampires.wav" WAVE
TRACK 10 AUDIO
TITLE "Theatres Des Vampires"
PERFORMER "Blacksmith"
INDEX 01 00:00:00
FILE "C:\Documents and Settings\leonid\My Documents\My Music\ToCD\Blacksmith - 1986 - Blacksmith [EP] - 1989 - Fire From Within\Blacksmith - 1986 - Blacksmith [EP] - 1989 - Fire From Within\11 Hell To Pay.wav" WAVE
TRACK 11 AUDIO
TITLE "Hell To Pay"
PERFORMER "Blacksmith"
INDEX 01 00:00:00
FILE "C:\Documents and Settings\leonid\My Documents\My Music\ToCD\Blacksmith - 1986 - Blacksmith [EP] - 1989 - Fire From Within\Blacksmith - 1986 - Blacksmith [EP] - 1989 - Fire From Within\12 Fug It.wav" WAVE
TRACK 12 AUDIO
TITLE "Fug It"
PERFORMER "Blacksmith"
INDEX 01 00:00:00
FILE "C:\Documents and Settings\leonid\My Documents\My Music\ToCD\Blacksmith - 1986 - Blacksmith [EP] - 1989 - Fire From Within\Blacksmith - 1986 - Blacksmith [EP] - 1989 - Fire From Within\13 Black Attack.wav" WAVE
TRACK 13 AUDIO
TITLE "Black Attack"
PERFORMER "Blacksmith"
INDEX 01 00:00:00


А потом просто берешь и отрезаешь Fire From Within и получаешь
следующий куй
PERFORMER "Blacksmith"
TITLE "Blacksmith [EP] / Fire From Within"
FILE "C:\Documents and Settings\leonid\My Documents\My Music\ToCD\Blacksmith - 1986 - Blacksmith [EP] - 1989 - Fire From Within\Blacksmith - 1986 - Blacksmith [EP] - 1989 - Fire From Within\01 The Bone March , Tower Of London.wav" WAVE
TRACK 01 AUDIO
TITLE "The Bone March / Tower Of London"
PERFORMER "Blacksmith"
INDEX 01 00:00:00
FILE "C:\Documents and Settings\leonid\My Documents\My Music\ToCD\Blacksmith - 1986 - Blacksmith [EP] - 1989 - Fire From Within\Blacksmith - 1986 - Blacksmith [EP] - 1989 - Fire From Within\02 Rock Hard.wav" WAVE
TRACK 02 AUDIO
TITLE "Rock Hard"
PERFORMER "Blacksmith"
INDEX 01 00:00:00
FILE "C:\Documents and Settings\leonid\My Documents\My Music\ToCD\Blacksmith - 1986 - Blacksmith [EP] - 1989 - Fire From Within\Blacksmith - 1986 - Blacksmith [EP] - 1989 - Fire From Within\03 Louder Than Hell.wav" WAVE
TRACK 03 AUDIO
TITLE "Louder Than Hell"
PERFORMER "Blacksmith"
INDEX 01 00:00:00
FILE "C:\Documents and Settings\leonid\My Documents\My Music\ToCD\Blacksmith - 1986 - Blacksmith [EP] - 1989 - Fire From Within\Blacksmith - 1986 - Blacksmith [EP] - 1989 - Fire From Within\04 Blacksmith.wav" WAVE
TRACK 04 AUDIO
TITLE "Blacksmith"
PERFORMER "Blacksmith"
INDEX 01 00:00:00

_________________
Death rules! Metal to all who oppose!


Top
 Profile  
 
 
PostPosted: 16 Nov 2009 
udo
User avatar
Joined: 01 Mar 2008
Posts: 2343
Lоcаtion: Краснодар
Age: 47
Name: РОМАН
metaleonid wrote:
Там же пре-гэпов вообще нет. Берешь EAC и запихиваешь туда wav file путем Tools->Split WAV by CUE sheet->With Gaps.

просто издевается :dash:


Top
 Profile E-mail  
 
 
PostPosted: 16 Nov 2009 
5-speed satisfactor
User avatar
Joined: 16 Feb 2009
Posts: 3604
Lоcаtion: New York, USA
Age: 40
Name: Leonid
odu wrote:
просто издевается :dash:


Ну кроме шуток. Это ж элементарно и каждый может сделать. Я думал там пре-гепы - с этим бы тяжелее было.

_________________
Death rules! Metal to all who oppose!


Top
 Profile  
 
 
PostPosted: 16 Nov 2009 
udo
User avatar
Joined: 01 Mar 2008
Posts: 2343
Lоcаtion: Краснодар
Age: 47
Name: РОМАН
metaleonid wrote:
пре-гепы

в нашем доме прошу не выражаться:crazy:


Top
 Profile E-mail  
 
 
PostPosted: 16 Nov 2009 
5-speed satisfactor
User avatar
Joined: 16 Feb 2009
Posts: 3604
Lоcаtion: New York, USA
Age: 40
Name: Leonid
odu wrote:
в нашем доме прошу не выражаться:crazy:


Я 19 лет в Америке. Я не очень ознакомлен с английским переводом на русский терминологии. :dash:
Pre-gap? Ну как сказать? Пре-пробел. Пре-расстояние? Пре-отступление? :nunu:

Кстати, :thanx: за миник. Я никогда его до этого не слышал. А альбом Fire From Within у меня на виниле с 1992-ого года, a на компакте с 1994-ого. Мне миник нравится значительно меньше. Наверное из-за вокала. Слишком глэмовый. Альбом - чисто метальный. True metal.

_________________
Death rules! Metal to all who oppose!


Last edited by metaleonid on 16 Nov 2009, edited 1 time in total.

Top
 Profile  
 
Display posts from previous:  Sort by  
Post new topic Reply to topic  [ 51 posts ]  Go to page Previous  1, 2, 3  Next

All times are UTC + 3 hours


Who is online

Users browsing this forum: Google [Bot] and 3 guests


You cannot post new topics in this forum
You cannot reply to topics in this forum
You cannot edit your posts in this forum
You cannot delete your posts in this forum
You cannot post attachments in this forum

Search for:
Яндекс.Метрика
Powered by phpBB © 2000, 2002, 2005, 2007 phpBB Group