\m/ 80's metal \m/

Информационно-аналитический форум "80 см пыли" (In Search We Trust) "У нас никто никуда не спешит"
Me For You - http://me-4u.com
It is currently 20 Oct 2018

All times are UTC + 3 hours

Spoiler
Chat - temporary registration for foreign users (please leave your application here)







Post new topic Reply to topic  [ 51 posts ]  Go to page 1, 2, 3  Next
Author Message
 
PostPosted: 30 May 2009 
udo
User avatar
Joined: 01 Mar 2008
Posts: 2343
Lоcаtion: Краснодар
Age: 47
Name: РОМАН
* Перезалейте, пожалуйста: | Re-up please:
Blacksmith - 1986 - Blacksmith [EP] - 1989 - Fire From Within


Image

Image


<Year:> 1986/1989
<Style:> power
<Country:> United States of America (Albany, New York)
<Format:> APE+CUE
<Size:> 428 mb

http://spinoza.ifolder.ru/12357874
http://spinoza.ifolder.ru/12359197
http://spinoza.ifolder.ru/12360699
http://spinoza.ifolder.ru/12361672
http://spinoza.ifolder.ru/12362272


Top
 Profile E-mail  
 
 
PostPosted: 30 May 2009 
Хиппей (support team)
User avatar
Joined: 30 Jul 2007
Posts: 107069
Lоcаtion: Киев (Kyiv, UA)
Age: 45
Name: Andrey
Спасибо, Рома :thanx:

Вот только трэк-лист желательно указывать, а то получается вот что viewtopic.php?f=175&t=2706 :pardon:

_________________


Top
 Profile E-mail  
 
 
PostPosted: 30 May 2009 
udo
User avatar
Joined: 01 Mar 2008
Posts: 2343
Lоcаtion: Краснодар
Age: 47
Name: РОМАН
да, косяк однако


Top
 Profile E-mail  
 
 
PostPosted: 30 May 2009 
Хиппей (support team)
User avatar
Joined: 30 Jul 2007
Posts: 107069
Lоcаtion: Киев (Kyiv, UA)
Age: 45
Name: Andrey
Ну чего косяк. На том релизе миника ж нету :dance:

_________________


Top
 Profile E-mail  
 
 
PostPosted: 30 May 2009 
Прокъмитолист
User avatar
Joined: 12 Aug 2007
Posts: 6490
Lоcаtion: Санктъ-Петербуркъ
Age: 51
Name: Олекъ
опаньки, я думал это такой же альбом... мне бы миник тогда нужен... может отпилит кто-нибудь? :oops:

_________________
прокъметол - это музыко, от которово есть прок (ы)


Top
 Profile  
 
 
PostPosted: 30 May 2009 
Хиппей (support team)
User avatar
Joined: 30 Jul 2007
Posts: 107069
Lоcаtion: Киев (Kyiv, UA)
Age: 45
Name: Andrey
Я бы атрэзал, но пока спешить качать не буду :oops:

_________________


Top
 Profile E-mail  
 
 
PostPosted: 31 May 2009 
А может смените мне статус?..
Joined: 19 Sep 2007
Posts: 932
Миник очень хорош !! :true:


Top
 Profile  
 
 
PostPosted: 24 Oct 2009 
5-speed satisfactor
User avatar
Joined: 16 Feb 2009
Posts: 3604
Lоcаtion: New York, USA
Age: 40
Name: Leonid
Вот вам:

Blacksmith - Fire From Within [flac]

http://www.megaupload.com/?d=2T66M7HZ

first pressing

cue
REM GENRE Metal
REM DATE 1989
REM DISCID A40CB609
REM COMMENT "ExactAudioCopy v0.99pb5"
PERFORMER "Blacksmith"
TITLE "Fire From Within"
FILE "Blacksmith - Fire From Within.wav" WAVE
TRACK 01 AUDIO
TITLE "The Beast"
PERFORMER "Blacksmith"
INDEX 01 00:00:00
TRACK 02 AUDIO
TITLE "House"
PERFORMER "Blacksmith"
INDEX 00 06:57:07
INDEX 01 06:57:12
TRACK 03 AUDIO
TITLE "Louder Than Hell"
PERFORMER "Blacksmith"
INDEX 00 12:34:17
INDEX 01 12:35:00
TRACK 04 AUDIO
TITLE "A Taste Of Darkness"
PERFORMER "Blacksmith"
INDEX 00 16:45:62
INDEX 01 16:47:37
TRACK 05 AUDIO
TITLE "The Bonemarch - Tower Of London"
PERFORMER "Blacksmith"
INDEX 00 26:24:48
INDEX 01 26:25:22
TRACK 06 AUDIO
TITLE "Theatres Des Vampires"
PERFORMER "Blacksmith"
INDEX 00 33:13:65
INDEX 01 33:16:00
TRACK 07 AUDIO
TITLE "Hell To Pay"
PERFORMER "Blacksmith"
INDEX 00 41:25:05
INDEX 01 41:27:22
TRACK 08 AUDIO
TITLE "Fug It"
PERFORMER "Blacksmith"
INDEX 00 47:48:45
INDEX 01 47:51:47
TRACK 09 AUDIO
TITLE "Black Attack"
PERFORMER "Blacksmith"
INDEX 00 48:17:02
INDEX 01 48:17:05


--Leonid

_________________
Death rules! Metal to all who oppose!


Top
 Profile  
 
 
PostPosted: 24 Oct 2009 
HAMMER
User avatar
Joined: 16 May 2009
Posts: 5395
Lоcаtion: Тверь
Age: 45
Name: Александр
Спасибо.


Top
 Profile E-mail  
 
 
PostPosted: 24 Oct 2009 
Хиппей (support team)
User avatar
Joined: 30 Jul 2007
Posts: 107069
Lоcаtion: Киев (Kyiv, UA)
Age: 45
Name: Andrey
:thanx:

_________________


Top
 Profile E-mail  
 
 
PostPosted: 24 Oct 2009 
Работнечег
User avatar
Joined: 28 Aug 2007
Posts: 5468
Lоcаtion: г. Москва
Age: 29
Name: Дима
Спасибо! :thanx:


Top
 Profile E-mail  
 
 
PostPosted: 24 Oct 2009 
Прокъмитолист
User avatar
Joined: 12 Aug 2007
Posts: 6490
Lоcаtion: Санктъ-Петербуркъ
Age: 51
Name: Олекъ
так, про миник, похоже, все забыли :(

_________________
прокъметол - это музыко, от которово есть прок (ы)


Top
 Profile  
 
 
PostPosted: 24 Oct 2009 
5-speed satisfactor
User avatar
Joined: 16 Feb 2009
Posts: 3604
Lоcаtion: New York, USA
Age: 40
Name: Leonid
Вот вот. Я тоже жду мини. Fire From Within: 1 из редких случаев, когда звук издания CD (начала 90х) намного лучше чем на виниле.

_________________
Death rules! Metal to all who oppose!


Top
 Profile  
 
 
PostPosted: 25 Oct 2009 
5-speed satisfactor
User avatar
Joined: 16 Feb 2009
Posts: 3604
Lоcаtion: New York, USA
Age: 40
Name: Leonid
Ну так что? EP будет или нет?

_________________
Death rules! Metal to all who oppose!


Top
 Profile  
 
 
PostPosted: 25 Oct 2009 
Хиппей (support team)
User avatar
Joined: 30 Jul 2007
Posts: 107069
Lоcаtion: Киев (Kyiv, UA)
Age: 45
Name: Andrey
Мдя, я тоже, оказывается, не качал этого лосика.
Вижу у себя только полный альбом-переиздание... :fingal:


odu

Рома, можешь еще раз зайти конём? (перезалить) :scratch:

_________________


Top
 Profile E-mail  
 
 
PostPosted: 25 Oct 2009 
udo
User avatar
Joined: 01 Mar 2008
Posts: 2343
Lоcаtion: Краснодар
Age: 47
Name: РОМАН
Scatterbrain wrote:
можешь еще раз зайти конём

уверен ?


Top
 Profile E-mail  
 
 
PostPosted: 25 Oct 2009 
Хиппей (support team)
User avatar
Joined: 30 Jul 2007
Posts: 107069
Lоcаtion: Киев (Kyiv, UA)
Age: 45
Name: Andrey
Ну тогда кузнецом... Чёрным :shok:

_________________


Top
 Profile E-mail  
 
 
PostPosted: 01 Nov 2009 
udo
User avatar
Joined: 01 Mar 2008
Posts: 2343
Lоcаtion: Краснодар
Age: 47
Name: РОМАН
мож все таки отпилить кусок ,вот ТОЛЬКО ГДЕ ТЕМКА про ампутацию


Top
 Profile E-mail  
 
 
PostPosted: 01 Nov 2009 
Прокъмитолист
User avatar
Joined: 12 Aug 2007
Posts: 6490
Lоcаtion: Санктъ-Петербуркъ
Age: 51
Name: Олекъ
Ром, запости для начала куй сюда. потом расскажем что и как пилить :umnik:

_________________
прокъметол - это музыко, от которово есть прок (ы)


Top
 Profile  
 
 
PostPosted: 01 Nov 2009 
udo
User avatar
Joined: 01 Mar 2008
Posts: 2343
Lоcаtion: Краснодар
Age: 47
Name: РОМАН
вот
куй
PERFORMER "Blacksmith"
TITLE "Blacksmith [EP] / Fire From Within"
FILE "Blacksmith - 1986 - Blacksmith [EP] - 1989 - Fire From Within.ape" WAVE
TRACK 01 AUDIO
TITLE "The Bone March / Tower Of London"
PERFORMER "Blacksmith"
INDEX 01 00:00:00
TRACK 02 AUDIO
TITLE "Rock Hard"
PERFORMER "Blacksmith"
INDEX 01 06:30:12
TRACK 03 AUDIO
TITLE "Louder Than Hell"
PERFORMER "Blacksmith"
INDEX 01 11:36:00
TRACK 04 AUDIO
TITLE "Blacksmith"
PERFORMER "Blacksmith"
INDEX 01 16:02:27
TRACK 05 AUDIO
TITLE "The Beast"
PERFORMER "Blacksmith"
INDEX 01 21:19:30
TRACK 06 AUDIO
TITLE "House"
PERFORMER "Blacksmith"
INDEX 01 28:16:32
TRACK 07 AUDIO
TITLE "Louder Than Hell"
PERFORMER "Blacksmith"
INDEX 01 33:52:48
TRACK 08 AUDIO
TITLE "A Taste Of Darkness"
PERFORMER "Blacksmith"
INDEX 01 38:02:55
TRACK 09 AUDIO
TITLE "The Bonemarch / Tower Of London"
PERFORMER "Blacksmith"
INDEX 01 47:36:48
TRACK 10 AUDIO
TITLE "Theatres Des Vampires"
PERFORMER "Blacksmith"
INDEX 01 54:25:68
TRACK 11 AUDIO
TITLE "Hell To Pay"
PERFORMER "Blacksmith"
INDEX 01 62:34:36
TRACK 12 AUDIO
TITLE "Fug It"
PERFORMER "Blacksmith"
INDEX 01 68:54:17
TRACK 13 AUDIO
TITLE "Black Attack"
PERFORMER "Blacksmith"
INDEX 01 69:20:57


Top
 Profile E-mail  
 
Display posts from previous:  Sort by  
Post new topic Reply to topic  [ 51 posts ]  Go to page 1, 2, 3  Next

All times are UTC + 3 hours


Who is online

Users browsing this forum: No registered users and 1 guest


You cannot post new topics in this forum
You cannot reply to topics in this forum
You cannot edit your posts in this forum
You cannot delete your posts in this forum
You cannot post attachments in this forum

Search for:
Яндекс.Метрика
Powered by phpBB © 2000, 2002, 2005, 2007 phpBB Group