\m/ 80's metal \m/

Информационно-аналитический форум "80 см пыли" (In Search We Trust) "У нас никто никуда не спешит"
Me For You - http://me-4u.com
It is currently 24 Oct 2018

All times are UTC + 3 hours

Spoiler
Chat - temporary registration for foreign users (please leave your application here)







Post new topic Reply to topic  [ 7 posts ] 
Author Message
 
PostPosted: 21 Mar 2009 
Power Metal Maniac
User avatar
Joined: 09 Aug 2008
Posts: 6317
Lоcаtion: Москва
Age: 40
Name: Егор
Blitzkrieg - Unholy Trinity

Image

Жанр: NWOBHM/Heavy Metal
Год выпуска диска: 1995
Страна: UK
Аудио кодек: APE
Тип рипа: image+.cue
Битрейт аудио: lossless
Продолжительность: 63:35
Трэклист:
1. Hair Trigger 06:39
2. Struck by Lightning 03:05
3. Taking Care of Business 04:22
4. Field of Dreams 02:31
5. Take a Look Around 03:50
6. After Dark 04:52
7. Crazy for You 03:29
8. Zip 00:13
9. Unholy Trinity 04:27
10. Calming the Savage Beast 05:12
11. The Wraith 03:12
12. Easy Way Out 03:13
13. All Hallows' Eve 02:26
14. Countess Bathory (Venom cover) 04:10
15. Jealous Love 02:51
16. House of Pleasure 03:09
17. Return of the Zip 00:13
18. Nocturnal Vision (Japanese Bonus) 5:34

Line-up :

Brian Ross - Vocals
Tony J. Liddle - Guitar
Dave Anderson - Bass
Sean Taylor - Drums

Conrad "Cronos" Lant - co-lead vocals on Countess Bathory.

Image

log

Exact Audio Copy V0.99 prebeta 4 from 23. January 2008

EAC extraction logfile from 21. March 2009, 9:40

Blitzkrieg / Unholy Trinity

Used drive : TEAC DV-W516GB Adapter: 0 ID: 2

Read mode : Secure
Utilize accurate stream : Yes
Defeat audio cache : Yes
Make use of C2 pointers : No

Read offset correction : 12
Overread into Lead-In and Lead-Out : No
Fill up missing offset samples with silence : Yes
Delete leading and trailing silent blocks : No
Null samples used in CRC calculations : Yes
Used interface : Native Win32 interface for Win NT & 2000

Used output format : Internal WAV Routines
Sample format : 44.100 Hz; 16 Bit; Stereo

TOC of the extracted CD

Track | Start | Length | Start sector | End sector
---------------------------------------------------------
1 | 0:00.00 | 6:37.25 | 0 | 29799
2 | 6:37.25 | 3:04.37 | 29800 | 43636
3 | 9:41.62 | 4:23.30 | 43637 | 63391
4 | 14:05.17 | 2:31.48 | 63392 | 74764
5 | 16:36.65 | 3:50.07 | 74765 | 92021
6 | 20:26.72 | 4:52.45 | 92022 | 113966
7 | 25:19.42 | 3:28.73 | 113967 | 129639
8 | 28:48.40 | 0:13.62 | 129640 | 130676
9 | 29:02.27 | 4:27.10 | 130677 | 150711
10 | 33:29.37 | 5:13.08 | 150712 | 174194
11 | 38:42.45 | 3:12.52 | 174195 | 188646
12 | 41:55.22 | 3:12.63 | 188647 | 203109
13 | 45:08.10 | 2:26.05 | 203110 | 214064
14 | 47:34.15 | 4:10.07 | 214065 | 232821
15 | 51:44.22 | 2:51.00 | 232822 | 245646
16 | 54:35.22 | 3:09.08 | 245647 | 259829
17 | 57:44.30 | 0:16.35 | 259830 | 261064
18 | 58:00.65 | 5:34.27 | 261065 | 286141

Range status and errors

Selected range

Filename I:\torrents\Blitzkrieg 1995- Unholy Trinity\Blitzkrieg - Unholy Trinity.wav

Peak level 100.0 %
Range quality 100.0 %
Copy CRC F8DF895E
Copy OK

No errors occurred

End of status report



НАРОД, 395 Mb

_________________
Long Live Metal!


Top
 Profile  
 
 
PostPosted: 21 Mar 2009 
Труъ
User avatar
Joined: 18 Jan 2009
Posts: 132
Lоcаtion: НиНо
Age: 48
Name: Дмитрий
EG Power
благодарю :thanx:

_________________
-= 'til death do us unite =-


Top
 Profile  
 
 
PostPosted: 21 Mar 2009 
Прокъмитолист
User avatar
Joined: 12 Aug 2007
Posts: 6490
Lоcаtion: Санктъ-Петербуркъ
Age: 51
Name: Олекъ
EG Power
и я присоединяюсь :thanx:

_________________
прокъметол - это музыко, от которово есть прок (ы)


Top
 Profile  
 
 
PostPosted: 21 Mar 2009 
Хиппей (support team)
User avatar
Joined: 30 Jul 2007
Posts: 107152
Lоcаtion: Киев (Kyiv, UA)
Age: 45
Name: Andrey
Спасибо, Егор :true:


Top
 Profile E-mail  
 
 
PostPosted: 16 Aug 2009 
.
User avatar
Joined: 25 Aug 2007
Posts: 568
Lоcаtion: Москва
Age: 106
Name: Kostolom
Спасибо, о таком альбоме только слышал, а сейчас понял, что надо слушать!


Top
 Profile  
 
 
PostPosted: 24 Jun 2010 
Пионэръ
User avatar
Joined: 20 Jun 2010
Posts: 40
Lоcаtion: Москоw-Сити
Name: Димон
шик альбом :true: .. где-то был у меня

_________________
)†/_'†º¨ł


Top
 Profile  
 
 
PostPosted: 24 Jun 2010 
спирт 100%
User avatar
Joined: 22 Sep 2008
Posts: 4305
Age: 47
Name: Саня
Егор, Спасибо!!! :true:


Top
 Profile  
 
Display posts from previous:  Sort by  
Post new topic Reply to topic  [ 7 posts ] 

All times are UTC + 3 hours


Who is online

Users browsing this forum: No registered users and 2 guests


You cannot post new topics in this forum
You cannot reply to topics in this forum
You cannot edit your posts in this forum
You cannot delete your posts in this forum
You cannot post attachments in this forum

Search for:
Яндекс.Метрика
Powered by phpBB © 2000, 2002, 2005, 2007 phpBB Group