\m/ 80's metal \m/

Информационно-аналитический форум "80 см пыли" (In Search We Trust) "У нас никто никуда не спешит"
Me For You - http://me-4u.com
It is currently 22 Sep 2019

All times are UTC + 3 hours

Spoiler
Chat - temporary registration for foreign users (please leave your application here)







Post new topic Reply to topic  [ 167 posts ]  Go to page Previous  1 ... 5, 6, 7, 8, 9
Author Message
 
PostPosted: 24 Feb 2019 
Трешер
User avatar
Joined: 25 Feb 2011
Posts: 1115
Lоcаtion: Харьков
Age: 43
Name: Aleksandr
Мне это приснилось или нет? Что эти три выкладывали где то ? :shok: в лосях ?
https://www.discogs.com/Briar-Take-On-The-World/release/6286127
https://www.discogs.com/sell/item/630828137
https://www.discogs.com/sell/item/630828137

Полез на винт нет у меня их :vic: Галюны ?


Top
 Profile E-mail  
 
 
PostPosted: 24 Feb 2019 
Работнечег
User avatar
Joined: 28 Aug 2007
Posts: 5995
Lоcаtion: г. Москва
Age: 30
Name: Дима
Оба альбома есть на дисках, думаю можно будет рипнуть. А вот переиздание 2018 года альбома Reach Out надо будет еще покупать)


Top
 Profile E-mail  
 
 
PostPosted: 24 Feb 2019 
Анатолий
User avatar
Joined: 18 Oct 2008
Posts: 3531
Lоcаtion: Армавир
Age: 42
Name: Анатолий
church wrote:
Оба альбома есть на дисках, думаю можно будет рипнуть.


Сделай пожалуйста, если не трудно. :oops:


Top
 Profile E-mail  
 
 
PostPosted: 24 Feb 2019 
Трешер
User avatar
Joined: 25 Feb 2011
Posts: 1115
Lоcаtion: Харьков
Age: 43
Name: Aleksandr
У тебя есть ? Давно купил Дима ? Выложи тогда .


Top
 Profile E-mail  
 
 
PostPosted: 25 Feb 2019 
Работнечег
User avatar
Joined: 28 Aug 2007
Posts: 5995
Lоcаtion: г. Москва
Age: 30
Name: Дима
У тебя есть ? Давно купил Дима ? Выложи тогда .

Купил примерно тогда, когда они и выпускались, ибо группа нравится мне. Выложу, как сделаю компьютер, вообщем в марте постараюсь.


Top
 Profile E-mail  
 
 
PostPosted: 23 Jun 2019 
Работнечег
User avatar
Joined: 28 Aug 2007
Posts: 5995
Lоcаtion: г. Москва
Age: 30
Name: Дима
Briar - Take On The World (1986)(Remastered in 2012) FLAC

Image

Tracklist:
1. Take on the World 02:48
2. Closing In 04:26
3. Odd One Out 03:00
4. Everybody 03:28
5. Always Gonna Love You 02:48
6. Lorraine 03:08
7. Without You 04:15
8. Keep on Running 04:12
9. Gimme All You Got 04:47
10. Stop me Foolin' 04:08

LOG
Exact Audio Copy V1.3 from 2. September 2016

EAC extraction logfile from 23. April 2019, 19:06

Briar / Take On The World (Remastered In 2012)

Used drive : PIONEER DVD-RW DVR-221 Adapter: 1 ID: 0

Read mode : Secure
Utilize accurate stream : Yes
Defeat audio cache : Yes
Make use of C2 pointers : No

Read offset correction : 6
Overread into Lead-In and Lead-Out : No
Fill up missing offset samples with silence : Yes
Delete leading and trailing silent blocks : No
Null samples used in CRC calculations : Yes
Used interface : Native Win32 interface for Win NT & 2000

Used output format : User Defined Encoder
Selected bitrate : 768 kBit/s
Quality : High
Add ID3 tag : No
Command line compressor : C:\Program Files (x86)\Exact Audio Copy\FLAC\FLAC.EXE
Additional command line options : -6 -V -T "ARTIST=%artist%" -T "TITLE=%title%" -T "ALBUM=%albumtitle%" -T "DATE=%year%" -T "TRACKNUMBER=%tracknr%" -T "GENRE=%genre%" -T "COMMENT=%comment%" -T "BAND=%albuminterpret%" -T "ALBUMARTIST=%albuminterpret%" -T "COMPOSER=%composer%" %haslyrics%--tag-from-file=LYRICS="%lyricsfile%"%haslyrics% -T "DISCNUMBER=%cdnumber%" -T "TOTALDISCS=%totalcds%" -T "TOTALTRACKS=%numtracks%" %hascover%--picture="%coverfile%"%hascover% %source% -o %dest%


TOC of the extracted CD

Track | Start | Length | Start sector | End sector
---------------------------------------------------------
1 | 0:00.00 | 2:39.63 | 0 | 11987
2 | 2:39.63 | 4:33.31 | 11988 | 32493
3 | 7:13.19 | 2:45.47 | 32494 | 44915
4 | 9:58.66 | 3:34.35 | 44916 | 61000
5 | 13:33.26 | 2:50.20 | 61001 | 73770
6 | 16:23.46 | 3:12.23 | 73771 | 88193
7 | 19:35.69 | 4:21.14 | 88194 | 107782
8 | 23:57.08 | 4:32.40 | 107783 | 128222
9 | 28:29.48 | 4:46.44 | 128223 | 149716
10 | 33:16.17 | 4:08.32 | 149717 | 168348


Range status and errors

Selected range

Filename D:\Музыка\Lossless\Briar - Take On The World (1986)(Remastered In 2012)\Briar - Take On The World (Remastered In 2012).wav

Peak level 98.8 %
Extraction speed 5.7 X
Range quality 99.9 %
Copy CRC B950A365
Copy OK

No errors occurred


AccurateRip summary

Track 1 not present in database
Track 2 not present in database
Track 3 not present in database
Track 4 not present in database
Track 5 not present in database
Track 6 not present in database
Track 7 not present in database
Track 8 not present in database
Track 9 not present in database
Track 10 not present in database

None of the tracks are present in the AccurateRip database

End of status report

---- CUETools DB Plugin V2.1.6

[CTDB TOCID: HRXhLhXjbwrARc6gLOZPzxYBe0M-] database access error: Невозможно разрешить удаленное имя: 'db.cuetools.net'

CUE
REM GENRE NWOBHM
REM DATE 1986
REM DISCID 8608C40A
REM COMMENT "ExactAudioCopy v1.3"
PERFORMER "Briar"
TITLE "Take On The World (Remastered In 2012)"
REM COMPOSER ""
FILE "Briar - Take On The World (Remastered In 2012).flac" WAVE
TRACK 01 AUDIO
TITLE "Take On The World"
PERFORMER "Briar"
REM COMPOSER ""
INDEX 01 00:00:00
TRACK 02 AUDIO
TITLE "Closing In"
PERFORMER "Briar"
REM COMPOSER ""
INDEX 01 02:39:63
TRACK 03 AUDIO
TITLE "Odd One Out"
PERFORMER "Briar"
REM COMPOSER ""
INDEX 01 07:13:19
TRACK 04 AUDIO
TITLE "Everybody"
PERFORMER "Briar"
REM COMPOSER ""
INDEX 01 09:58:66
TRACK 05 AUDIO
TITLE "Always Gonna Love Ya"
PERFORMER "Briar"
REM COMPOSER ""
INDEX 01 13:33:26
TRACK 06 AUDIO
TITLE "Lorraine"
PERFORMER "Briar"
REM COMPOSER ""
INDEX 01 16:23:46
TRACK 07 AUDIO
TITLE "Without You"
PERFORMER "Briar"
REM COMPOSER ""
INDEX 01 19:35:69
TRACK 08 AUDIO
TITLE "Keep On Running"
PERFORMER "Briar"
REM COMPOSER ""
INDEX 01 23:57:08
TRACK 09 AUDIO
TITLE "Gimme All You Got (Bonus)"
PERFORMER "Briar"
REM COMPOSER ""
INDEX 01 28:29:48
TRACK 10 AUDIO
TITLE "Stop Me Foolin (Bonus)"
PERFORMER "Briar"
REM COMPOSER ""
INDEX 00 33:15:50
INDEX 01 33:16:17


Yadi

9 и 10 песня бонусы.


Top
 Profile E-mail  
 
 
PostPosted: 24 Jun 2019 
Прокъмитолист
User avatar
Joined: 12 Aug 2007
Posts: 6605
Lоcаtion: Санктъ-Петербуркъ
Age: 51
Name: Олекъ
:thanx:

_________________
прокъметол - это музыко, от которово есть прок (ы)


Top
 Profile  
 
Display posts from previous:  Sort by  
Post new topic Reply to topic  [ 167 posts ]  Go to page Previous  1 ... 5, 6, 7, 8, 9

All times are UTC + 3 hours


Who is online

Users browsing this forum: No registered users and 1 guest


You cannot post new topics in this forum
You cannot reply to topics in this forum
You cannot edit your posts in this forum
You cannot delete your posts in this forum
You cannot post attachments in this forum

Search for:
Яндекс.Метрика
Powered by phpBB © 2000, 2002, 2005, 2007 phpBB Group