\m/ 80's metal \m/

Информационно-аналитический форум "80 см пыли" (In Search We Trust) "У нас никто никуда не спешит"
Me For You - http://me-4u.com
It is currently 17 Dec 2018

All times are UTC + 3 hours

Spoiler
Chat - temporary registration for foreign users (please leave your application here)







Post new topic Reply to topic  [ 32 posts ]  Go to page Previous  1, 2
Author Message
 
PostPosted: 10 Feb 2010 
Генеральный thrasher
User avatar
Joined: 03 Oct 2008
Posts: 3537
Lоcаtion: Ханты-Мансийский АО
Age: 43
Name: Сергей
Scatterbrain wrote:
Спасибо
Оценил этот вариант и от "лэйбла Metaleonid". Второй звучит сочнее. А на этом тож слышен винильный песочек. Ну и бонусы ваще не в тему, как для меня


Саныч!Этот вариант чисто для ознакомления...МнеЛёнины лосики тоже нравятся.Но и эти имеют право на жизнь.


Top
 Profile  
 
 
PostPosted: 10 Feb 2010 
Хиппей (support team)
User avatar
Joined: 30 Jul 2007
Posts: 108973
Lоcаtion: Киев (Kyiv, UA)
Age: 45
Name: Andrey
Серёг, а я щас еще кроме твоего и Лёниного скачаю и переиздание от поляков :crazy:
Пусть будет все. Пока место на винте появилось :dance:

_________________


Top
 Profile E-mail  
 
 
PostPosted: 10 Feb 2010 
Генеральный thrasher
User avatar
Joined: 03 Oct 2008
Posts: 3537
Lоcаtion: Ханты-Мансийский АО
Age: 43
Name: Сергей
Scatterbrain wrote:
Серёг, а я щас еще кроме твоего и Лёниного скачаю и переиздание от поляков
Пусть будет все. Пока место на винте появилось


Этто ТЕМА!


Top
 Profile  
 
 
PostPosted: 11 Feb 2010 
5-speed satisfactor
User avatar
Joined: 16 Feb 2009
Posts: 3637
Lоcаtion: New York, USA
Age: 40
Name: Leonid
thorbeorn wrote:
Саныч!Этот вариант чисто для ознакомления...МнеЛёнины лосики тоже нравятся.Но и эти имеют право на жизнь.


A у меня тоже все есть. На всякий случай. Old Metal Records & Metal Mind Records - в архивах, а мой в коллекции. :crazy:

_________________
Death rules! Metal to all who oppose!


Top
 Profile  
 
 
PostPosted: 11 Feb 2010 
Хиппей (support team)
User avatar
Joined: 30 Jul 2007
Posts: 108973
Lоcаtion: Киев (Kyiv, UA)
Age: 45
Name: Andrey
metaleonid wrote:
Old Metal Records & Metal Mind Records - в архивах

Кстати, прослушал только что релиз от поляков, сравнил с олдмэталовским. Кхм, кроме бонусов по качеству различий не расслышал :vic:

_________________


Top
 Profile E-mail  
 
 
PostPosted: 11 Feb 2010 
5-speed satisfactor
User avatar
Joined: 16 Feb 2009
Posts: 3637
Lоcаtion: New York, USA
Age: 40
Name: Leonid
Scatterbrain wrote:
Кстати, прослушал только что релиз от поляков, сравнил с олдмэталовским. Кхм, кроме бонусов по качеству различий не расслышал :vic:


Да нет. Есть. Цифра разная. По времени они тоже отличаются.

_________________
Death rules! Metal to all who oppose!


Top
 Profile  
 
 
PostPosted: 09 Oct 2015 
Рарник и трушник
User avatar
Joined: 25 Dec 2009
Posts: 8486
Lоcаtion: Москва
Age: 53
Name: Виталий
А перезалейте плиз Old Metal издание с бонусами. :thanx:


Top
 Profile  
 
 
PostPosted: 10 Oct 2015 
Генеральный thrasher
User avatar
Joined: 03 Oct 2008
Posts: 3537
Lоcаtion: Ханты-Мансийский АО
Age: 43
Name: Сергей
А перезалейте плиз Old Metal издание с бонусами. :thanx:


Я бы перезалил,Виталь,да мой жёсткий с рипами Blessed Death сдох. :cry:


Top
 Profile  
 
 
PostPosted: 10 Oct 2015 
А может смените мне статус?..
Joined: 03 Jul 2009
Posts: 836
Lоcаtion: Serbia
Name: Laki
New link Old Metal records

Mega

Rusfolder


Top
 Profile E-mail  
 
 
PostPosted: 10 Oct 2015 
Рарник и трушник
User avatar
Joined: 25 Dec 2009
Posts: 8486
Lоcаtion: Москва
Age: 53
Name: Виталий
Спасибо, Лаки! :thanx:


Top
 Profile  
 
 
PostPosted: 10 Oct 2015 
Хиппей (support team)
User avatar
Joined: 30 Jul 2007
Posts: 108973
Lоcаtion: Киев (Kyiv, UA)
Age: 45
Name: Andrey
New link Old Metal records

Mega

Rusfolder

:thanx:

Image

mirror: iFolder l Narod l M-Cloud

Image

Image

Exact Audio Copy V0.99 prebeta 4 from 23. January 2008

log
Отчёт EAC об извлечении, выполненном 27. августа 2009, 13:51

Blessed Death / Kill Or Be Killed

Дисковод: YJY K9IB0HEBW Adapter: 5 ID: 0

Режим чтения : Достоверность
Использование точного потока : Да
Отключение кэша аудио : Да
Использование указателей C2 : Нет

Коррекция смещения при чтении : 0
Способность читать области Lead-in и Lead-out : Нет
Заполнение пропущенных сэмплов тишиной : Да
Удаление блоков с тишиной в начале и конце : Нет
При вычислениях CRC использовались нулевые сэмплы : Нет
Интерфейс : Встроенный Win32-интерфейс для Win NT/2000

Выходной формат : Внутренние WAV-операции
Формат сэмплов : 44.100 Гц; 16 бит; стерео


TOC извлечённого CD

Трек | Старт | Длительность | Начальный сектор | Конечный сектор
---------------------------------------------------------------------
1 | 0:00.00 | 3:38.70 | 0 | 16419
2 | 3:38.70 | 2:54.08 | 16420 | 29477
3 | 6:33.03 | 5:10.27 | 29478 | 52754
4 | 11:43.30 | 3:31.54 | 52755 | 68633
5 | 15:15.09 | 6:34.35 | 68634 | 98218
6 | 21:49.44 | 4:01.07 | 98219 | 116300
7 | 25:50.51 | 7:18.05 | 116301 | 149155
8 | 33:08.56 | 3:52.00 | 149156 | 166555
9 | 37:00.56 | 6:28.32 | 166556 | 195687
10 | 43:29.13 | 3:48.65 | 195688 | 212852
11 | 47:18.03 | 4:00.20 | 212853 | 230872
12 | 51:18.23 | 3:42.37 | 230873 | 247559
13 | 55:00.60 | 3:01.63 | 247560 | 261197
14 | 58:02.48 | 7:13.33 | 261198 | 293705
15 | 65:16.06 | 3:06.27 | 293706 | 307682


Характеристики диапазона извлечения и сообщения об ошибках

Выбранный диапазон

Имя файла D:\Audio\EAC\Blessed Death - 1985 - Kill Or Be Killed.wav

Пиковый уровень 100.0 %
Качество диапазона 100.0 %
CRC копии 5F1A704A
Копирование... OK

Ошибок не произошло

Конец отчёта

cue
REM DATE 1985
REM DISCID B510060F
REM COMMENT "ExactAudioCopy v0.99pb4"
PERFORMER "Blessed Death"
TITLE "Kill Or Be Killed"
FILE "Blessed Death - 1985 - Kill Or Be Killed.wav" WAVE
TRACK 01 AUDIO
TITLE "Meltdown"
PERFORMER "Blessed Death"
INDEX 01 00:00:00
TRACK 02 AUDIO
TITLE "Pig Slaughter"
PERFORMER "Blessed Death"
INDEX 01 03:38:70
TRACK 03 AUDIO
TITLE "Omen Of Fate"
PERFORMER "Blessed Death"
INDEX 01 06:33:03
TRACK 04 AUDIO
TITLE "Into The Ovens"
PERFORMER "Blessed Death"
INDEX 01 11:43:30
TRACK 05 AUDIO
TITLE "Knights Of Old Bridge"
PERFORMER "Blessed Death"
INDEX 01 15:15:09
TRACK 06 AUDIO
TITLE "Eternal War"
PERFORMER "Blessed Death"
INDEX 01 21:49:44
TRACK 07 AUDIO
TITLE "Blessed Death"
PERFORMER "Blessed Death"
INDEX 01 25:50:51
TRACK 08 AUDIO
TITLE "Napalm"
PERFORMER "Blessed Death"
INDEX 01 33:08:56
TRACK 09 AUDIO
TITLE "Kill Or Be Killed"
PERFORMER "Blessed Death"
INDEX 01 37:00:56
TRACK 10 AUDIO
TITLE "Meltdown (Demo Bonus)"
PERFORMER "Blessed Death"
INDEX 01 43:29:13
TRACK 11 AUDIO
TITLE "Napalm (Demo Bonus)"
PERFORMER "Blessed Death"
INDEX 01 47:18:03
TRACK 12 AUDIO
TITLE "Into The Ovens (Demo Bonus)"
PERFORMER "Blessed Death"
INDEX 01 51:18:23
TRACK 13 AUDIO
TITLE "Pig Slaughter (Demo Bonus)"
PERFORMER "Blessed Death"
INDEX 01 55:00:60
TRACK 14 AUDIO
TITLE "Blessed Death (Demo Bonus)"
PERFORMER "Blessed Death"
INDEX 01 58:02:48
TRACK 15 AUDIO
TITLE "Eternal War (Demo Bonus)"
PERFORMER "Blessed Death"
INDEX 01 65:16:06

_________________


Top
 Profile E-mail  
 
 
PostPosted: 01 Dec 2015 
консэрваторъ
Joined: 11 Aug 2007
Posts: 16334
Lоcаtion: Псков
Age: 44
Name: Сергей
А перезалейте пожалуйста... :oops:
-=KazgorotH=- wrote:
Metal Mind ремастированный вариант

Упс... :arrow: viewtopic.php?p=243109#p243109

_________________
THRASH 'EM ALL


Top
 Profile E-mail  
 
Display posts from previous:  Sort by  
Post new topic Reply to topic  [ 32 posts ]  Go to page Previous  1, 2

All times are UTC + 3 hours


Who is online

Users browsing this forum: No registered users and 1 guest


You cannot post new topics in this forum
You cannot reply to topics in this forum
You cannot edit your posts in this forum
You cannot delete your posts in this forum
You cannot post attachments in this forum

Search for:
Яндекс.Метрика
Powered by phpBB © 2000, 2002, 2005, 2007 phpBB Group