\m/ 80's metal \m/

Информационно-аналитический форум "80 см пыли" (In Search We Trust) "У нас никто никуда не спешит"
Me For You - http://me-4u.com
It is currently 17 Oct 2018

All times are UTC + 3 hours

Spoiler
Chat - temporary registration for foreign users (please leave your application here)







Post new topic Reply to topic  [ 32 posts ]  Go to page 1, 2  Next
Author Message
 
PostPosted: 31 Aug 2008 
Thrasher
User avatar
Joined: 07 Oct 2007
Posts: 2756
Lоcаtion: Russia, Moscow
Age: 34
Name: Drunk & Evil
Blessed Death - 1985 - Kill Or Be Killed
Genre: Speed/Thrash
Country: USA
Size: 339 Mb


Image

Tracklist:
1.Melt Down
2.Pig Slaughter
3.Omen Of Fate
4.Into The Ovens
5.Knights of Old Bridge
6.Eternal War
7.Blessed Death
8.Napalm
9.Kill Or Be Killed

TPT: 44:13

Narod

uploader: -=KazgorotH=-

_________________
ВОДКА, БАБЫ И БЛЮЗ / 40° till death... :bodun:
One time we saw some hookers, but when we got closer, we realised it was Mötley Crüe. ©


Top
 Profile  
 
 
PostPosted: 31 Aug 2008 
Хиппей (support team)
User avatar
Joined: 30 Jul 2007
Posts: 106935
Lоcаtion: Киев (Kyiv, UA)
Age: 45
Name: Andrey
:true:


Top
 Profile E-mail  
 
 
PostPosted: 24 Dec 2008 
хард н хэвщик (support team)
User avatar
Joined: 02 Jun 2008
Posts: 16880
Lоcаtion: Н.Новгород
Age: 31
Name: Артем
архив удален


Top
 Profile  
 
 
PostPosted: 24 Dec 2008 
Mechanix
User avatar
Joined: 05 Sep 2007
Posts: 477
Lоcаtion: Ekaterinodar
Age: 45
Name: Alexey
http://headbangers.nnm.ru/blessed_death ... _be_killed :true:

_________________
Image
Image


Top
 Profile  
 
 
PostPosted: 24 Oct 2009 
5-speed satisfactor
User avatar
Joined: 16 Feb 2009
Posts: 3604
Lоcаtion: New York, USA
Age: 40
Name: Leonid
Это откуда? Какой CD pressing? Они все с винила насколько я знаю.

_________________
Death rules! Metal to all who oppose!


Top
 Profile  
 
 
PostPosted: 24 Oct 2009 
Thrasher
User avatar
Joined: 07 Oct 2007
Posts: 2756
Lоcаtion: Russia, Moscow
Age: 34
Name: Drunk & Evil
Quote:
Metal Mind ремастированный вариант

_________________
ВОДКА, БАБЫ И БЛЮЗ / 40° till death... :bodun:
One time we saw some hookers, but when we got closer, we realised it was Mötley Crüe. ©


Top
 Profile  
 
 
PostPosted: 24 Oct 2009 
5-speed satisfactor
User avatar
Joined: 16 Feb 2009
Posts: 3604
Lоcаtion: New York, USA
Age: 40
Name: Leonid
Файл удален с сервиса.

Хочу ремастированную версию.

_________________
Death rules! Metal to all who oppose!


Top
 Profile  
 
 
PostPosted: 24 Oct 2009 
Thrasher
User avatar
Joined: 07 Oct 2007
Posts: 2756
Lоcаtion: Russia, Moscow
Age: 34
Name: Drunk & Evil
есть...похмелюсь ща чуток и залью :bodun:

_________________
ВОДКА, БАБЫ И БЛЮЗ / 40° till death... :bodun:
One time we saw some hookers, but when we got closer, we realised it was Mötley Crüe. ©


Top
 Profile  
 
 
PostPosted: 24 Oct 2009 
5-speed satisfactor
User avatar
Joined: 16 Feb 2009
Posts: 3604
Lоcаtion: New York, USA
Age: 40
Name: Leonid
Спасибо.

Я переизданий от Метал Майнд не слышал, за исключением Бульдозера, который они взяли с Sound Cave и обработали, который в свою очередь (на Sound Cave) был с винила. Исключение - Alive In Poland, который они взяли с компакта и подняли громкость.

_________________
Death rules! Metal to all who oppose!


Top
 Profile  
 
 
PostPosted: 28 Oct 2009 
Thrasher
User avatar
Joined: 07 Oct 2007
Posts: 2756
Lоcаtion: Russia, Moscow
Age: 34
Name: Drunk & Evil
Сорри...немного протормозил.... вотс..Blessed Death - 1985 - Kill Or Be Killed [EAC-FLAC].rar

_________________
ВОДКА, БАБЫ И БЛЮЗ / 40° till death... :bodun:
One time we saw some hookers, but when we got closer, we realised it was Mötley Crüe. ©


Top
 Profile  
 
 
PostPosted: 31 Oct 2009 
5-speed satisfactor
User avatar
Joined: 16 Feb 2009
Posts: 3604
Lоcаtion: New York, USA
Age: 40
Name: Leonid
Качаю. Спасибо.

_________________
Death rules! Metal to all who oppose!


Top
 Profile  
 
 
PostPosted: 03 Nov 2009 
5-speed satisfactor
User avatar
Joined: 16 Feb 2009
Posts: 3604
Lоcаtion: New York, USA
Age: 40
Name: Leonid
Скачал на комп. Благодарю. На компакт еще не скинул, но проанализировал на компе. То, что они сделали с винила, у меня нет сомнений. Но цифра не взята от Кинга Фаули и не моя цифра. Вроде качество неплохое, но на хорошей аппаратуре еще не слушал.

_________________
Death rules! Metal to all who oppose!


Top
 Profile  
 
 
PostPosted: 08 Feb 2010 
Генеральный thrasher
User avatar
Joined: 03 Oct 2008
Posts: 3462
Lоcаtion: Ханты-Мансийский АО
Age: 43
Name: Сергей
А как насчёт такого издания?

Album: Kill Or Be Killed (Bonus Tracks)
Style: Speed/Thrash Metal
Country: U.S.A.
Audio: ape+cue+log
Size: 431Mb
Label:Old Metal Records

Tracklist:
1. Melt Down
2. Pig Slaughter
3. Omen Of Fate
4. Into The Ovens
5. Knights of Old Bridge
6. Eternal War
7. Blessed Death
8. Napalm
9. Kill Or Be Killed
10.Meltdown (Demo Bonus)
11.Napalm (Demo Bonus)
12.Into The Ovens (Demo Bonus)
13.Pig Slaughter (Demo Bonus)
14.Blessed Death (Demo Bonus)
15.Eternal War (Demo Bonus)

Cue
REM DATE 1985
REM DISCID B510060F
REM COMMENT "ExactAudioCopy v0.99pb4"
PERFORMER "Blessed Death"
TITLE "Kill Or Be Killed"
FILE "Blessed Death - 1985 - Kill Or Be Killed.wav" WAVE
TRACK 01 AUDIO
TITLE "Meltdown"
PERFORMER "Blessed Death"
INDEX 01 00:00:00
TRACK 02 AUDIO
TITLE "Pig Slaughter"
PERFORMER "Blessed Death"
INDEX 01 03:38:70
TRACK 03 AUDIO
TITLE "Omen Of Fate"
PERFORMER "Blessed Death"
INDEX 01 06:33:03
TRACK 04 AUDIO
TITLE "Into The Ovens"
PERFORMER "Blessed Death"
INDEX 01 11:43:30
TRACK 05 AUDIO
TITLE "Knights Of Old Bridge"
PERFORMER "Blessed Death"
INDEX 01 15:15:09
TRACK 06 AUDIO
TITLE "Eternal War"
PERFORMER "Blessed Death"
INDEX 01 21:49:44
TRACK 07 AUDIO
TITLE "Blessed Death"
PERFORMER "Blessed Death"
INDEX 01 25:50:51
TRACK 08 AUDIO
TITLE "Napalm"
PERFORMER "Blessed Death"
INDEX 01 33:08:56
TRACK 09 AUDIO
TITLE "Kill Or Be Killed"
PERFORMER "Blessed Death"
INDEX 01 37:00:56
TRACK 10 AUDIO
TITLE "Meltdown (Demo Bonus)"
PERFORMER "Blessed Death"
INDEX 01 43:29:13
TRACK 11 AUDIO
TITLE "Napalm (Demo Bonus)"
PERFORMER "Blessed Death"
INDEX 01 47:18:03
TRACK 12 AUDIO
TITLE "Into The Ovens (Demo Bonus)"
PERFORMER "Blessed Death"
INDEX 01 51:18:23
TRACK 13 AUDIO
TITLE "Pig Slaughter (Demo Bonus)"
PERFORMER "Blessed Death"
INDEX 01 55:00:60
TRACK 14 AUDIO
TITLE "Blessed Death (Demo Bonus)"
PERFORMER "Blessed Death"
INDEX 01 58:02:48
TRACK 15 AUDIO
TITLE "Eternal War (Demo Bonus)"
PERFORMER "Blessed Death"
INDEX 01 65:16:06


Log
Exact Audio Copy V0.99 prebeta 4 from 23. January 2008

Отчёт EAC об извлечении, выполненном 27. августа 2009, 13:51

Blessed Death / Kill Or Be Killed

Дисковод: YJY K9IB0HEBW Adapter: 5 ID: 0

Режим чтения : Достоверность
Использование точного потока : Да
Отключение кэша аудио : Да
Использование указателей C2 : Нет

Коррекция смещения при чтении : 0
Способность читать области Lead-in и Lead-out : Нет
Заполнение пропущенных сэмплов тишиной : Да
Удаление блоков с тишиной в начале и конце : Нет
При вычислениях CRC использовались нулевые сэмплы : Нет
Интерфейс : Встроенный Win32-интерфейс для Win NT/2000

Выходной формат : Внутренние WAV-операции
Формат сэмплов : 44.100 Гц; 16 бит; стерео


TOC извлечённого CD

Трек | Старт | Длительность | Начальный сектор | Конечный сектор
---------------------------------------------------------------------
1 | 0:00.00 | 3:38.70 | 0 | 16419
2 | 3:38.70 | 2:54.08 | 16420 | 29477
3 | 6:33.03 | 5:10.27 | 29478 | 52754
4 | 11:43.30 | 3:31.54 | 52755 | 68633
5 | 15:15.09 | 6:34.35 | 68634 | 98218
6 | 21:49.44 | 4:01.07 | 98219 | 116300
7 | 25:50.51 | 7:18.05 | 116301 | 149155
8 | 33:08.56 | 3:52.00 | 149156 | 166555
9 | 37:00.56 | 6:28.32 | 166556 | 195687
10 | 43:29.13 | 3:48.65 | 195688 | 212852
11 | 47:18.03 | 4:00.20 | 212853 | 230872
12 | 51:18.23 | 3:42.37 | 230873 | 247559
13 | 55:00.60 | 3:01.63 | 247560 | 261197
14 | 58:02.48 | 7:13.33 | 261198 | 293705
15 | 65:16.06 | 3:06.27 | 293706 | 307682


Характеристики диапазона извлечения и сообщения об ошибках

Выбранный диапазон

Имя файла D:\Audio\EAC\Blessed Death - 1985 - Kill Or Be Killed.wav

Пиковый уровень 100.0 %
Качество диапазона 100.0 %
CRC копии 5F1A704A
Копирование... OK

Ошибок не произошло

Конец отчёта



Megaupload


Top
 Profile  
 
 
PostPosted: 08 Feb 2010 
Работнечег
User avatar
Joined: 28 Aug 2007
Posts: 5464
Lоcаtion: г. Москва
Age: 29
Name: Дима
Спасибо Серёг! :thanx:


Top
 Profile E-mail  
 
 
PostPosted: 08 Feb 2010 
5-speed satisfactor
User avatar
Joined: 16 Feb 2009
Posts: 3604
Lоcаtion: New York, USA
Age: 40
Name: Leonid
У меня есть это издание. Херовенько звучит. Я так Кингу и сказал, что иголочку уже давно пора было менять на вертушке его друга. Но он со мной не согласился. Я выложу свою версию, когда время будет.

_________________
Death rules! Metal to all who oppose!


Top
 Profile  
 
 
PostPosted: 08 Feb 2010 
А может смените мне статус?..
Joined: 03 Jul 2009
Posts: 792
Lоcаtion: Serbia
Name: Laki
Thanks. I am curious to see what this version sounds like.


Top
 Profile E-mail  
 
 
PostPosted: 08 Feb 2010 
А может смените мне статус?..
User avatar
Joined: 24 Dec 2008
Posts: 617
Age: 44
Name: Дмитрий
Спасибо.


Top
 Profile  
 
 
PostPosted: 09 Feb 2010 
5-speed satisfactor
User avatar
Joined: 16 Feb 2009
Posts: 3604
Lоcаtion: New York, USA
Age: 40
Name: Leonid
Кстати, мне Метал Майндовский вариант больше нравится, чем Кинговский (Old Metal Records). У Кинга верхи сильно срезаны.

_________________
Death rules! Metal to all who oppose!


Top
 Profile  
 
 
PostPosted: 09 Feb 2010 
5-speed satisfactor
User avatar
Joined: 16 Feb 2009
Posts: 3604
Lоcаtion: New York, USA
Age: 40
Name: Leonid
viewtopic.php?f=175&t=7410

_________________
Death rules! Metal to all who oppose!


Top
 Profile  
 
 
PostPosted: 10 Feb 2010 
Хиппей (support team)
User avatar
Joined: 30 Jul 2007
Posts: 106935
Lоcаtion: Киев (Kyiv, UA)
Age: 45
Name: Andrey
thorbeorn wrote:
Album: Kill Or Be Killed (Bonus Tracks)

Спасибо :thanx:
Оценил этот вариант и от "лэйбла Metaleonid". Второй звучит сочнее. А на этом тож слышен винильный песочек. Ну и бонусы ваще не в тему, как для меня :fingal:

_________________


Top
 Profile E-mail  
 
Display posts from previous:  Sort by  
Post new topic Reply to topic  [ 32 posts ]  Go to page 1, 2  Next

All times are UTC + 3 hours


Who is online

Users browsing this forum: Google [Bot] and 4 guests


You cannot post new topics in this forum
You cannot reply to topics in this forum
You cannot edit your posts in this forum
You cannot delete your posts in this forum
You cannot post attachments in this forum

Search for:
Яндекс.Метрика
Powered by phpBB © 2000, 2002, 2005, 2007 phpBB Group