\m/ 80's metal \m/

Информационно-аналитический форум "80 см пыли" (In Search We Trust) "У нас никто никуда не спешит"
Me For You - http://me-4u.com
It is currently 10 Dec 2018

All times are UTC + 3 hours

Spoiler
Chat - temporary registration for foreign users (please leave your application here)







Post new topic Reply to topic  [ 22 posts ]  Go to page 1, 2  Next
Author Message
 
PostPosted: 16 Dec 2015 
\m/ 80 см сала \m/
User avatar
Joined: 12 Mar 2012
Posts: 2589
Age: 25
Name: Nick
Image

Bestial Invasion (Ukr) - Act Of Retribution (2015)

01. Act Of Retribution (Intro) (1:44)
02. Doomed Years (3:05)
03. Silent Wonders (feat. J.Gallagher) (3:55)
04. Numenor (3:54)
05. Praise Of Mind (feat. Pulver, Nardi, Tecchio and Wilkens) (5:26)
06. ...From Somewhere In The Woods (4:09)
07. My Dreadful Hours (4:33)
08. Desires And Circumstances (MCCCVII) (4:43)
09. On And On (Raven cover) (4:00)

Bestial Invasion wrote:
Специальные гости на альбоме:
Pulver (Potergeist, Carrion, Gurd, Messiah), Nardi (Anacrusis), Tecchio (Watchtower, Hades), Wilkens (Destruction), J.Gallagher (Raven).

Сводка/Мастеринг - Владислав Munruthel (MooonHome Studio)
Художник : Алена Лучнева.


https://yadi.sk/mail/?hash=3oU9hl3/nU%2 ... 3usRtAs%3D
Стыбрено с соцсети :pardon:

_________________
1990 AUROPHON BRAINSTORM (Germany) - lossless
1994 MAUSOLEUM CLASSIX (Belgium-Germany) - lossless
1998 VA - GRIM HARVEST - Complete Metal Massacre Volumes I-XII


Top
 Profile  
 
 
PostPosted: 16 Dec 2015 
Доктор энтомологии
User avatar
Joined: 22 Jan 2009
Posts: 9475
Lоcаtion: Даугавпилс
Age: 43
Name: Алексей
Ухтышки! Спасибо! :thanx:


Top
 Profile  
 
 
PostPosted: 16 Dec 2015 
Прокъмитолист
User avatar
Joined: 12 Aug 2007
Posts: 6512
Lоcаtion: Санктъ-Петербуркъ
Age: 51
Name: Олекъ
гости - моё почтение. кочаю :thanx:

_________________
прокъметол - это музыко, от которово есть прок (ы)


Top
 Profile  
 
 
PostPosted: 18 Dec 2015 
\m/ 80 см сала \m/
User avatar
Joined: 12 Mar 2012
Posts: 2589
Age: 25
Name: Nick
А напишите отзывы, коллективу было бы интересно :oops:

_________________
1990 AUROPHON BRAINSTORM (Germany) - lossless
1994 MAUSOLEUM CLASSIX (Belgium-Germany) - lossless
1998 VA - GRIM HARVEST - Complete Metal Massacre Volumes I-XII


Top
 Profile  
 
 
PostPosted: 18 Dec 2015 
Доктор энтомологии
User avatar
Joined: 22 Jan 2009
Posts: 9475
Lоcаtion: Даугавпилс
Age: 43
Name: Алексей
Послушал пока только один раз. Отложил на потом, поскольку надо внимательно все оценить. Первые впечатления положительные, музыка несколько сумбурна (может даже слишком), что, для выбранного ими жанра (Mekong Delta, Watchtower, Deathrow) очень хорошо. Чувствуется, что музыканты хотят угодить всем своим вкусам и стараются быть похожими сразу на несколько технотрешовых групп (сложно просечь с первого раза их собственное лицо), а также попытались вместить в радуемые временные рамки как можно больше фишичек, наворотов и всяких там гласов фрагментарных приглашенных вокалистов. Басуха очень порадовала (привет Sadus и технодэтовым монстрам!). Здорово, что нет соплей: симфо, скрипок, мдма и прочей чуши.
Моментик в районе 3 минуты темы My Dreadful Hours стырено с последней темы полноформатника Destruction-86
Возникло стойкое желание по-песенно разложить словами их трэки через призму своего искаженного сознания. Сделаю, как окажется для этого время (видать на грядущих выходных католических рождественских деньках)


Top
 Profile  
 
 
PostPosted: 18 Dec 2015 
Прокъмитолист
User avatar
Joined: 12 Aug 2007
Posts: 6512
Lоcаtion: Санктъ-Петербуркъ
Age: 51
Name: Олекъ
ну я, как и Лёша, пока только разок сумбурно прокрутил. перые впечатления положительные, понравилось больше, чем ранее заслушанные демки. надо бы более вдумчиво заценить, не отвлекаясь на всякое.

_________________
прокъметол - это музыко, от которово есть прок (ы)


Top
 Profile  
 
 
PostPosted: 04 Oct 2017 
Хиппей (support team)
User avatar
Joined: 30 Jul 2007
Posts: 108779
Lоcаtion: Киев (Kyiv, UA)
Age: 45
Name: Andrey
Everhard wrote:
Bestial Invasion (Ukr) - Act Of Retribution (2015)

:thanx:

mirror: Giga l Drop l Narod

_________________


Top
 Profile E-mail  
 
 
PostPosted: 13 Oct 2017 
семерых одним ударом
Joined: 18 Aug 2007
Posts: 3848
Lоcаtion: Владивосток
Age: 43
Name: Николай Николаевич
как для укров, так даже круто - приличный техно с каким-то немецким призвуком (америкосовский техно пожесче и по рифовей. Вполне достойно.
Кстати на трекере пара альбомов в лосе


Top
 Profile  
 
 
PostPosted: 13 Oct 2017 
Доктор энтомологии
User avatar
Joined: 22 Jan 2009
Posts: 9475
Lоcаtion: Даугавпилс
Age: 43
Name: Алексей
Quote:
как для укров

Да хоть из Зимбабве :dance:
Новый альбом еще лучше, не смотря на некоторую аляповатость и мозаичность (желание под каждую группу подстроиться), с большой любовью чуваки относятся к техно-трэшу олдовому :dance:


Top
 Profile  
 
 
PostPosted: 13 Oct 2017 
семерых одним ударом
Joined: 18 Aug 2007
Posts: 3848
Lоcаtion: Владивосток
Age: 43
Name: Николай Николаевич
Entomologist wrote:
Да хоть из Зимбабве

Мне померещилось, что группа из UK. Так бы и качать не стал, увидел- хотел затереть, остановило волшебное слово техно-трэш...и собственно поэтому положительное впечатление было не ожидаемо.


Top
 Profile  
 
 
PostPosted: 14 Oct 2017 
Хиппей (support team)
User avatar
Joined: 30 Jul 2007
Posts: 108779
Lоcаtion: Киев (Kyiv, UA)
Age: 45
Name: Andrey
Хм... хм.. явно завтра и себе лосей накачаю :vic:

_________________


Top
 Profile E-mail  
 
 
PostPosted: 22 Nov 2017 
Хиппей (support team)
User avatar
Joined: 30 Jul 2007
Posts: 108779
Lоcаtion: Киев (Kyiv, UA)
Age: 45
Name: Andrey
Ой, а второго лося (альбома в лосе) так и не было?

_________________


Top
 Profile E-mail  
 
 
PostPosted: 22 Nov 2017 
Хиппей (support team)
User avatar
Joined: 30 Jul 2007
Posts: 108779
Lоcаtion: Киев (Kyiv, UA)
Age: 45
Name: Andrey
О, какой лэйбл зантяный :kro:

https://shellfire-attack.bandcamp.com/music

_________________


Top
 Profile E-mail  
 
 
PostPosted: 22 Nov 2017 
Прокъмитолист
User avatar
Joined: 12 Aug 2007
Posts: 6512
Lоcаtion: Санктъ-Петербуркъ
Age: 51
Name: Олекъ
Scatterbrain wrote:
Ой, а второго лося (альбома в лосе) так и не было?

на трахторе есть альбом и миник.

_________________
прокъметол - это музыко, от которово есть прок (ы)


Top
 Profile  
 
 
PostPosted: 22 Nov 2017 
Хиппей (support team)
User avatar
Joined: 30 Jul 2007
Posts: 108779
Lоcаtion: Киев (Kyiv, UA)
Age: 45
Name: Andrey
Scatterbrain wrote:
Ой, а второго лося (альбома в лосе) так и не было?

на трахторе есть альбом и миник.

А можешь ссылками указать?

_________________


Top
 Profile E-mail  
 
 
PostPosted: 22 Nov 2017 
Хиппей (support team)
User avatar
Joined: 30 Jul 2007
Posts: 108779
Lоcаtion: Киев (Kyiv, UA)
Age: 45
Name: Andrey
https://bestialinvasion.bandcamp.com/tr ... single-ver

Хорошая шутка :ok:

Image

_________________


Top
 Profile E-mail  
 
 
PostPosted: 22 Nov 2017 
Хиппей (support team)
User avatar
Joined: 30 Jul 2007
Posts: 108779
Lоcаtion: Киев (Kyiv, UA)
Age: 45
Name: Andrey
Миник нашёл, перелистывая странички раздела :arrow: https://rutracker.org/forum/viewtopic.php?t=5385241 :kro:

_________________


Top
 Profile E-mail  
 
 
PostPosted: 22 Nov 2017 
Хиппей (support team)
User avatar
Joined: 30 Jul 2007
Posts: 108779
Lоcаtion: Киев (Kyiv, UA)
Age: 45
Name: Andrey
Ну и всё. Только первый в лосе :arrow: https://rutracker.org/forum/viewtopic.php?t=5181037
Второго не нашёл, пролистав весь раздел :arrow: https://rutracker.org/forum/viewforum.php?f=739
Есть на ДаркАббисе, но там нет тех, кто бы перелил сюда. Хотя есть, но очкуют, бабене :pardon:

_________________


Top
 Profile E-mail  
 
 
PostPosted: 23 Nov 2017 
Хиппей (support team)
User avatar
Joined: 30 Jul 2007
Posts: 108779
Lоcаtion: Киев (Kyiv, UA)
Age: 45
Name: Andrey
Bestial Invasion - 2016 - Trilogy - Prisoners of Miserable Fate (EP) [flac]

Image Image Image Image

mirror: Giga l Narod l M-Cloud l Drop

Все 4 композиции весьма и весьма хороши. Хоть и мало их, и не в тельняшках.
Но за несколько дней слушать группу уже немного поднадоело... :oops:

8/10

Image Image Image Image

log
Exact Audio Copy V1.1 from 23. June 2015

Отчёт EAC об извлечении, выполненном 1. апреля 2017, 15:45

Bestial Invasion / Trilogy-Prisoners of Miserable Fate

Дисковод: ASUS DRW-24F1MT Adapter: 1 ID: 0

Режим чтения : Достоверность
Использование точного потока : Да
Отключение кэша аудио : Да
Использование указателей C2 : Нет

Коррекция смещения при чтении : 6
Способность читать области Lead-in и Lead-out : Нет
Заполнение пропущенных сэмплов тишиной : Да
Удаление блоков с тишиной в начале и конце : Нет
При вычислениях CRC использовались нулевые сэмплы : Да
Интерфейс : Встроенный Win32-интерфейс для Win NT/2000

Выходной формат : Пользовательский кодировщик
Выбранный битрейт : 1024 kBit/s
Качество : Высокий
Добавление ID3-тега : Нет
Утилита сжатия : C:\Program Files (x86)\Exact Audio Copy\Flac\flac.exe
Дополнительные параметры : -V -8 -T "Date=%year%" -T "Genre=%genre%" %source%


TOC извлечённого CD

Трек | Старт | Длительность | Начальный сектор | Конечный сектор
---------------------------------------------------------------------
1 | 0:00.00 | 3:47.44 | 0 | 17068
2 | 3:47.44 | 4:29.42 | 17069 | 37285
3 | 8:17.11 | 4:20.26 | 37286 | 56811
4 | 12:37.37 | 9:48.73 | 56812 | 100984


Характеристики диапазона извлечения и сообщения об ошибках

Выбранный диапазон

Имя файла G:\ВСЕ ЗАГРУЗКИ\sking\Bestial Invasion - Trilogy-Prisoners of Miserable Fate (2016)\Bestial Invasion - Trilogy-Prisoners of Miserable Fate.wav

Пиковый уровень 98.7 %
Скорость извлечения 2.3 X
Качество диапазона 100.0 %
CRC теста EF4EDD5A
CRC копии EF4EDD5A
Копирование... OK

Ошибок не произошло


AccurateRip: сводка

Трек 1 отсутствует в базе данных
Трек 2 отсутствует в базе данных
Трек 3 отсутствует в базе данных
Трек 4 отсутствует в базе данных

Ни одного трека нет в базе AccurateRip

Конец отчёта

---- CUETools DB Plugin V2.1.6

[CTDB TOCID: sLTsuvPS5soIOief5bhgAvyiGzY-] found
Submit result: sLTsuvPS5soIOief5bhgAvyiGzY- has been confirmed
Track | CTDB Status
1 | (1/1) Accurately ripped
2 | (1/1) Accurately ripped
3 | (1/1) Accurately ripped
4 | (1/1) Accurately ripped


==== Контрольная сумма отчёта 2C176302583C373CC09E4CDC636A7AD6F211D535ECF421CD2A9F722503B40DE9 ====

cue
REM GENRE "Thrash Metal"
REM DATE 2016
REM DISCID 3A054204
REM COMMENT "ExactAudioCopy v1.1"
PERFORMER "Bestial Invasion"
TITLE "Trilogy-Prisoners of Miserable Fate"
FILE "Bestial Invasion - Trilogy-Prisoners of Miserable Fate.flac" WAVE
TRACK 01 AUDIO
TITLE "Prisoners of Miserable Fate"
PERFORMER "Bestial Invasion"
INDEX 01 00:00:00
TRACK 02 AUDIO
TITLE "Zodiac Crime World Mystery"
PERFORMER "Bestial Invasion"
INDEX 01 03:47:44
TRACK 03 AUDIO
TITLE "Caligula Salacious Age"
PERFORMER "Bestial Invasion"
INDEX 01 08:17:11
TRACK 04 AUDIO
TITLE "JRR Tolkien-Lord of Middle Earth"
PERFORMER "Bestial Invasion"
INDEX 01 12:37:37

_________________


Top
 Profile E-mail  
 
 
PostPosted: 23 May 2018 
Хиппей (support team)
User avatar
Joined: 30 Jul 2007
Posts: 108779
Lоcаtion: Киев (Kyiv, UA)
Age: 45
Name: Andrey
Bestial Invasion - 2017 - Contra Omnes [flac]

Image Image Image

mirror: Giga l Drop l Narod l M-Cloud

Альбом сразу в топы, без объяснений.
Хоть немного и не моя музыка исполняется, но однозначно цепляет и хочется продолжения банкета :kro:

8/10

Image Image Image

log
Exact Audio Copy V1.1 from 23. June 2015

Отчёт EAC об извлечении, выполненном 18. октября 2017, 16:06

Bestial Invasion / Contra Omnes

Дисковод: ASUS DRW-24F1MT Adapter: 1 ID: 0

Режим чтения : Достоверность
Использование точного потока : Да
Отключение кэша аудио : Да
Использование указателей C2 : Нет

Коррекция смещения при чтении : 6
Способность читать области Lead-in и Lead-out : Нет
Заполнение пропущенных сэмплов тишиной : Да
Удаление блоков с тишиной в начале и конце : Нет
При вычислениях CRC использовались нулевые сэмплы : Да
Интерфейс : Встроенный Win32-интерфейс для Win NT/2000

Выходной формат : Пользовательский кодировщик
Выбранный битрейт : 1024 kBit/s
Качество : Высокий
Добавление ID3-тега : Нет
Утилита сжатия : C:\Program Files (x86)\Exact Audio Copy\Flac\flac.exe
Дополнительные параметры : -V -8 -T "Date=%year%" -T "Genre=%genre%" %source%


TOC извлечённого CD

Трек | Старт | Длительность | Начальный сектор | Конечный сектор
---------------------------------------------------------------------
1 | 0:00.00 | 4:53.00 | 0 | 21974
2 | 4:53.00 | 4:06.70 | 21975 | 40494
3 | 8:59.70 | 4:48.71 | 40495 | 62165
4 | 13:48.66 | 4:43.42 | 62166 | 83432
5 | 18:32.33 | 1:36.74 | 83433 | 90706
6 | 20:09.32 | 5:10.03 | 90707 | 113959
7 | 25:19.35 | 4:47.70 | 113960 | 135554
8 | 30:07.30 | 4:26.61 | 135555 | 155565
9 | 34:34.16 | 3:02.04 | 155566 | 169219
10 | 37:36.20 | 3:58.01 | 169220 | 187070
11 | 41:34.21 | 5:58.27 | 187071 | 213947
12 | 47:32.48 | 4:36.39 | 213948 | 234686


Характеристики диапазона извлечения и сообщения об ошибках

Выбранный диапазон

Имя файла G:\ВСЕ ЗАГРУЗКИ\sking\Bestial Invasion - Contra Omnes (2017)\Bestial Invasion - Contra Omnes.wav

Пиковый уровень 99.9 %
Скорость извлечения 2.8 X
Качество диапазона 100.0 %
CRC теста 2E414084
CRC копии 2E414084
Копирование... OK

Ошибок не произошло


AccurateRip: сводка

Трек 1 отсутствует в базе данных
Трек 2 отсутствует в базе данных
Трек 3 отсутствует в базе данных
Трек 4 отсутствует в базе данных
Трек 5 отсутствует в базе данных
Трек 6 отсутствует в базе данных
Трек 7 отсутствует в базе данных
Трек 8 отсутствует в базе данных
Трек 9 отсутствует в базе данных
Трек 10 отсутствует в базе данных
Трек 11 отсутствует в базе данных
Трек 12 отсутствует в базе данных

Ни одного трека нет в базе AccurateRip

Конец отчёта

---- CUETools DB Plugin V2.1.6

[CTDB TOCID: il8h0rvOfaTRFrjM1OR.twEkX1k-] disk not present in database
Submit result: il8h0rvOfaTRFrjM1OR.twEkX1k- has been uploaded


==== Контрольная сумма отчёта CCC054CBDE497DB7CFE34DC8851B444697CCB38E83242A666AC93E357C7D8640 ====

cue
REM GENRE "Thrash Metal"
REM DATE 2017
REM DISCID 960C390C
REM COMMENT "ExactAudioCopy v1.1"
PERFORMER "Bestial Invasion"
TITLE "Contra Omnes"
FILE "Bestial Invasion - Contra Omnes.flac" WAVE
TRACK 01 AUDIO
TITLE "Inception"
PERFORMER "Bestial Invasion"
INDEX 01 00:00:00
TRACK 02 AUDIO
TITLE "N.E.V.E.R.M.O.R.E"
PERFORMER "Bestial Invasion"
INDEX 01 04:53:00
TRACK 03 AUDIO
TITLE "Prisoner of Miserable Fate"
PERFORMER "Bestial Invasion"
INDEX 01 08:59:70
TRACK 04 AUDIO
TITLE "Camera Obscura (Caravaggio Specular Vision)"
PERFORMER "Bestial Invasion"
INDEX 01 13:48:66
TRACK 05 AUDIO
TITLE "Enigma (bass solo)"
PERFORMER "Bestial Invasion"
INDEX 01 18:32:33
TRACK 06 AUDIO
TITLE "Repudiating the Power"
PERFORMER "Bestial Invasion"
INDEX 01 20:09:32
TRACK 07 AUDIO
TITLE "Zodiac Crime World Mystery"
PERFORMER "Bestial Invasion"
INDEX 01 25:19:35
TRACK 08 AUDIO
TITLE "Caligula Salacious Age!"
PERFORMER "Bestial Invasion"
INDEX 01 30:07:30
TRACK 09 AUDIO
TITLE "Thrash Attack (Destruction cover)"
PERFORMER "Bestial Invasion"
INDEX 01 34:34:16
TRACK 10 AUDIO
TITLE "Numinor"
PERFORMER "Bestial Invasion"
INDEX 01 37:36:20
TRACK 11 AUDIO
TITLE "See you in hell"
PERFORMER "Bestial Invasion"
INDEX 01 41:34:21
TRACK 12 AUDIO
TITLE "Caligula Salacious Age!(drum and bass version)"
PERFORMER "Bestial Invasion"
INDEX 01 47:32:48

_________________


Top
 Profile E-mail  
 
Display posts from previous:  Sort by  
Post new topic Reply to topic  [ 22 posts ]  Go to page 1, 2  Next

All times are UTC + 3 hours


Who is online

Users browsing this forum: No registered users and 1 guest


You cannot post new topics in this forum
You cannot reply to topics in this forum
You cannot edit your posts in this forum
You cannot delete your posts in this forum
You cannot post attachments in this forum

Search for:
Яндекс.Метрика
Powered by phpBB © 2000, 2002, 2005, 2007 phpBB Group