\m/ 80's metal \m/

Информационно-аналитический форум "80 см пыли" (In Search We Trust) "У нас никто никуда не спешит"
Me For You - http://me-4u.com
It is currently 15 Dec 2018

All times are UTC + 3 hours

Spoiler
Chat - temporary registration for foreign users (please leave your application here)







Post new topic Reply to topic  [ 39 posts ]  Go to page Previous  1, 2
Author Message
 
PostPosted: 21 Feb 2016 
Работнечег
User avatar
Joined: 28 Aug 2007
Posts: 5606
Lоcаtion: г. Москва
Age: 29
Name: Дима
Blitzz - Tarantella (1987 - 1989) (Compilation)

Image

Label: German Democratic Recordings
Genre: Heavy Metal
Country: Germany
Format: Flac + Log + Cue + Covers
Size: 569 Mb

Tracklist:
1. Money Rules the World 03:29
2. Lucifer 03:55
3. Greed 03:41
4. Tarantella 04:34
5. Black Is Black 01:58
6. Easy Booty 02:50
7. Voices 04:15
8. Do the Blitz 04:21
9. EL 34 03:52 instrumental
10. Demon of the Night 03:52
11. School's Out 03:40
12. Run for Your Life 03:26
13. Medusa (Live 1988) 06:05
14. Es treibt mich die Gier (1987) 03:31
15. Tarantella (German version 1987) 05:15
16. EL 34 (1987) 03:33 instrumental
17. Leichte Beute (Live 1987) 02:48
18. Die Titanic sinkt (Demo 1987) 04:16
19. I'm Alive (Live 1988) 05:39

LOG
Exact Audio Copy V0.99 prebeta 5 from 4. May 2009

EAC extraction logfile from 17. January 2016, 17:56

Blitzz / Tarantella (1987-1989)

Used drive : PIONEER DVD-RW DVR-221 Adapter: 2 ID: 1

Read mode : Secure
Utilize accurate stream : Yes
Defeat audio cache : Yes
Make use of C2 pointers : No

Read offset correction : 6
Overread into Lead-In and Lead-Out : No
Fill up missing offset samples with silence : Yes
Delete leading and trailing silent blocks : No
Null samples used in CRC calculations : Yes
Used interface : Native Win32 interface for Win NT & 2000

Used output format : User Defined Encoder
Selected bitrate : 32 kBit/s
Quality : High
Add ID3 tag : No
Command line compressor : C:\Program Files\Exact Audio Copy\Flac\flac.exe
Additional command line options : -6 -V %s


TOC of the extracted CD

Track | Start | Length | Start sector | End sector
---------------------------------------------------------
1 | 0:00.00 | 3:29.07 | 0 | 15681
2 | 3:29.07 | 3:55.68 | 15682 | 33374
3 | 7:25.00 | 3:41.06 | 33375 | 49955
4 | 11:06.06 | 4:34.40 | 49956 | 70545
5 | 15:40.46 | 1:58.02 | 70546 | 79397
6 | 17:38.48 | 2:50.52 | 79398 | 92199
7 | 20:29.25 | 4:15.29 | 92200 | 111353
8 | 24:44.54 | 4:21.37 | 111354 | 130965
9 | 29:06.16 | 3:52.53 | 130966 | 148418
10 | 32:58.69 | 3:52.05 | 148419 | 165823
11 | 36:50.74 | 3:40.10 | 165824 | 182333
12 | 40:31.09 | 3:26.72 | 182334 | 197855
13 | 43:58.06 | 6:05.37 | 197856 | 225267
14 | 50:03.43 | 3:31.14 | 225268 | 241106
15 | 53:34.57 | 5:15.00 | 241107 | 264731
16 | 58:49.57 | 3:33.32 | 264732 | 280738
17 | 62:23.14 | 2:48.69 | 280739 | 293407
18 | 65:12.08 | 4:16.16 | 293408 | 312623
19 | 69:28.24 | 5:39.37 | 312624 | 338085


Range status and errors

Selected range

Filename D:\Музыка\Lossless\Blitzz - Tarantella (Compilation)(2013)\Blitzz - Tarantella (1987-1989).wav

Peak level 96.6 %
Range quality 100.0 %
Copy CRC 6A71C170
Copy OK

No errors occurred


AccurateRip summary

Track 1 not present in database
Track 2 not present in database
Track 3 not present in database
Track 4 not present in database
Track 5 not present in database
Track 6 not present in database
Track 7 not present in database
Track 8 not present in database
Track 9 not present in database
Track 10 not present in database
Track 11 not present in database
Track 12 not present in database
Track 13 not present in database
Track 14 not present in database
Track 15 not present in database
Track 16 not present in database
Track 17 not present in database
Track 18 not present in database
Track 19 not present in database

None of the tracks are present in the AccurateRip database

End of status report

CUE
REM GENRE "Power/Speed Metal"
REM DATE 2013
REM DISCID EE119B13
REM COMMENT "ExactAudioCopy v0.99pb5"
PERFORMER "Blitzz"
TITLE "Tarantella (1987-1989)"
FILE "Blitzz - Tarantella (1987-1989).flac" WAVE
TRACK 01 AUDIO
TITLE "Money Rules The World"
PERFORMER "Blitzz"
INDEX 01 00:00:00
TRACK 02 AUDIO
TITLE "Lucifer"
PERFORMER "Blitzz"
INDEX 01 03:29:07
TRACK 03 AUDIO
TITLE "Greed"
PERFORMER "Blitzz"
INDEX 01 07:25:00
TRACK 04 AUDIO
TITLE "Tarantella"
PERFORMER "Blitzz"
INDEX 01 11:06:06
TRACK 05 AUDIO
TITLE "Black Is Black"
PERFORMER "Blitzz"
INDEX 01 15:40:46
TRACK 06 AUDIO
TITLE "Easy Booty"
PERFORMER "Blitzz"
INDEX 01 17:38:48
TRACK 07 AUDIO
TITLE "Voices"
PERFORMER "Blitzz"
INDEX 01 20:29:25
TRACK 08 AUDIO
TITLE "Do The Blitzz"
PERFORMER "Blitzz"
INDEX 01 24:44:54
TRACK 09 AUDIO
TITLE "El 34 (Instrumental)"
PERFORMER "Blitzz"
INDEX 01 29:06:16
TRACK 10 AUDIO
TITLE "Demon Of The Night"
PERFORMER "Blitzz"
INDEX 01 32:58:69
TRACK 11 AUDIO
TITLE "School's Out"
PERFORMER "Blitzz"
INDEX 01 36:50:74
TRACK 12 AUDIO
TITLE "Run For Your Life"
PERFORMER "Blitzz"
INDEX 01 40:31:09
TRACK 13 AUDIO
TITLE "Medusa (Live)"
PERFORMER "Blitzz"
INDEX 01 43:58:06
TRACK 14 AUDIO
TITLE "Es Treibt Mich Die Gier"
PERFORMER "Blitzz"
INDEX 01 50:03:43
TRACK 15 AUDIO
TITLE "Tarantella (Deutsche Version)"
PERFORMER "Blitzz"
INDEX 01 53:34:57
TRACK 16 AUDIO
TITLE "El 34 (Instrumental, Erste Version) "
PERFORMER "Blitzz"
INDEX 01 58:49:57
TRACK 17 AUDIO
TITLE "Leichte Beute (Live)"
PERFORMER "Blitzz"
INDEX 01 62:23:14
TRACK 18 AUDIO
TITLE "Die Titanic Sinkt (Demo)"
PERFORMER "Blitzz"
INDEX 01 65:12:08
TRACK 19 AUDIO
TITLE "I'm Alive (Live)"
PERFORMER "Blitzz"
INDEX 01 69:28:24


Yadi

Наверное всё творчество этих немцев, песенrb 4 довольно проходные, часть песен можно сказать дублируются, остальные на хорошем уровне! Из неизданного на ипихе особенно понравились El 34, Medusa, Black Is Black и I'm Alive. :true:


Top
 Profile E-mail  
 
 
PostPosted: 21 Feb 2016 
Прокъмитолист
User avatar
Joined: 12 Aug 2007
Posts: 6514
Lоcаtion: Санктъ-Петербуркъ
Age: 51
Name: Олекъ
:thanx:

_________________
прокъметол - это музыко, от которово есть прок (ы)


Top
 Profile  
 
 
PostPosted: 21 Feb 2016 
Хиппей (support team)
User avatar
Joined: 30 Jul 2007
Posts: 108919
Lоcаtion: Киев (Kyiv, UA)
Age: 45
Name: Andrey
church wrote:
Blitzz - Tarantella (1987 - 1989) (Compilation)

Ого, Дим, спасибо! :thanx: :lob: :lob: :lob:

mirror: iFolder l Narod l M-Cloud

_________________


Top
 Profile E-mail  
 
 
PostPosted: 21 Feb 2016 
Я набрал 1000 сообщений!
Joined: 21 Nov 2009
Posts: 1406
Lоcаtion: praga
Age: 48
Name: Сергей
:thanx: послушаем.


Top
 Profile E-mail  
 
 
PostPosted: 21 Feb 2016 
Хиппей (support team)
User avatar
Joined: 30 Jul 2007
Posts: 108919
Lоcаtion: Киев (Kyiv, UA)
Age: 45
Name: Andrey
church wrote:
5. Black Is Black 01:58

Басист орёт недорезанным голосом? :crazy:

_________________


Top
 Profile E-mail  
 
 
PostPosted: 21 Feb 2016 
Хиппей (support team)
User avatar
Joined: 30 Jul 2007
Posts: 108919
Lоcаtion: Киев (Kyiv, UA)
Age: 45
Name: Andrey
church wrote:
7. Voices 04:15

О, а здесь он уже читает текст :meloman:

_________________


Top
 Profile E-mail  
 
 
PostPosted: 21 Feb 2016 
Доктор энтомологии
User avatar
Joined: 22 Jan 2009
Posts: 9485
Lоcаtion: Даугавпилс
Age: 43
Name: Алексей
На облоге шпагоглотатель ? :shok:


Top
 Profile  
 
 
PostPosted: 21 Feb 2016 
Хиппей (support team)
User avatar
Joined: 30 Jul 2007
Posts: 108919
Lоcаtion: Киев (Kyiv, UA)
Age: 45
Name: Andrey
На облоге шпагоглотатель ? :shok:

Паучкоед. Вроде ж :cry:

_________________


Top
 Profile E-mail  
 
 
PostPosted: 21 Feb 2016 
спирт 100%
User avatar
Joined: 22 Sep 2008
Posts: 4328
Age: 47
Name: Саня
:thanx: Дим,Спасибо! обложка какая страшная аж жуть :au:


Top
 Profile  
 
 
PostPosted: 21 Feb 2016 
Работнечег
User avatar
Joined: 28 Aug 2007
Posts: 5606
Lоcаtion: г. Москва
Age: 29
Name: Дима
church wrote:
5. Black Is Black 01:58

Басист орёт недорезанным голосом? :crazy:

Не уверен, что басист, но вполне возможно :crazy:


Top
 Profile E-mail  
 
 
PostPosted: 21 Feb 2016 
Хиппей (support team)
User avatar
Joined: 30 Jul 2007
Posts: 108919
Lоcаtion: Киев (Kyiv, UA)
Age: 45
Name: Andrey
Дваа раза послушал сборку. Хороша она в плане порыться в песнях и сравнить их, а так же заловые вещи послушать.
Но миник всё равно почти идеален в плане более качественного и близкого знакомства с группой :meloman:

_________________


Top
 Profile E-mail  
 
 
PostPosted: 21 Feb 2016 
Работнечег
User avatar
Joined: 28 Aug 2007
Posts: 5606
Lоcаtion: г. Москва
Age: 29
Name: Дима
Дваа раза послушал сборку. Хороша она в плане порыться в песнях и сравнить их, а так же заловые вещи послушать.
Но миник всё равно почти идеален в плане более качественного и близкого знакомства с группой :meloman:

Cогласен!


Top
 Profile E-mail  
 
 
PostPosted: 22 Feb 2016 
Трешер
User avatar
Joined: 25 Feb 2011
Posts: 1062
Lоcаtion: Харьков
Age: 42
Name: Aleksandr
Благодарность :thanx: спасибо Дим .


Top
 Profile E-mail  
 
 
PostPosted: 22 Feb 2016 
Рарник и трушник
User avatar
Joined: 25 Dec 2009
Posts: 8481
Lоcаtion: Москва
Age: 53
Name: Виталий
Scatterbrain wrote:
Паучкоед. Вроде ж :cry:

Не, едопаучок там, э..э.. в смысле, паук ест, а не паука едят. А ваще, тарантелла - это когда тарантул кусает, и чел начинает безумно плясать. Говорят, помогает излечиться от безумия. :pardon:

Спасибо за знакомство с командой, мне вот не попадалось как-то раньше, хотя и на Стимхаммере выходил миник. Хорошая банда! :thanx:


Top
 Profile  
 
 
PostPosted: 22 Feb 2016 
Хиппей (support team)
User avatar
Joined: 30 Jul 2007
Posts: 108919
Lоcаtion: Киев (Kyiv, UA)
Age: 45
Name: Andrey
Vitaly65 wrote:
Хорошая банда! :thanx:

Очень ждал твоей реакции на миник :thanx:

Про тарантеллу читал как-то, ага. Но тута хрен поймешь, кто кого ест, или просто оба спят :kro:

_________________


Top
 Profile E-mail  
 
 
PostPosted: 22 Feb 2016 
ТрэшЭрос
User avatar
Joined: 18 Jul 2011
Posts: 2300
Lоcаtion: Гулькевичи
Age: 43
Name: Александр
Дима, :thanx:

_________________
Thrash no trash!!!


Top
 Profile E-mail  
 
 
PostPosted: 22 Feb 2016 
Рарник и трушник
User avatar
Joined: 25 Dec 2009
Posts: 8481
Lоcаtion: Москва
Age: 53
Name: Виталий
Scatterbrain wrote:
Но тута хрен поймешь, кто кого ест, или просто оба спят

Андроныч, ну шош тут непонятного-то? Чел попал в ловушку к пауку, паук его спеленал паутиной и высосал все соки у чела. :cry:
Scatterbrain wrote:
Очень ждал твоей реакции на миник

Ну эта команда - 100% попадания в мою любимую тему тевтонского мяталла.
Мне просто самому странно, что раньше не попадалась, наверное потому что миник, а я миники на винилах не собирал никада, материала мало, а цена как у большого LP. :vic:


Top
 Profile  
 
 
PostPosted: 23 Feb 2016 
Хиппей (support team)
User avatar
Joined: 30 Jul 2007
Posts: 108919
Lоcаtion: Киев (Kyiv, UA)
Age: 45
Name: Andrey
Vitaly65 wrote:
Андроныч, ну шош тут непонятного-то? Чел попал в ловушку к пауку, паук его спеленал паутиной и высосал все соки у чела. :cry:

Какой же Вы, Виталь Вадимыч, непозитивный.
На самом деле чуваг в бодуна сидит себе на кухне и закусывает после стакана бормотухи мохнатым и вкусняшным паучком :kro:
Vitaly65 wrote:
а я миники на винилах не собирал никада

О! Тогда у нас еще парочка десятков есть подобных групп :dance:

_________________


Top
 Profile E-mail  
 
 
PostPosted: 13 Sep 2016 
Power Metal Maniac
User avatar
Joined: 09 Aug 2008
Posts: 6434
Lоcаtion: Москва
Age: 40
Name: Егор
:thanx:

_________________
Long Live Metal!


Top
 Profile  
 
Display posts from previous:  Sort by  
Post new topic Reply to topic  [ 39 posts ]  Go to page Previous  1, 2

All times are UTC + 3 hours


Who is online

Users browsing this forum: No registered users and 1 guest


You cannot post new topics in this forum
You cannot reply to topics in this forum
You cannot edit your posts in this forum
You cannot delete your posts in this forum
You cannot post attachments in this forum

Search for:
Яндекс.Метрика
Powered by phpBB © 2000, 2002, 2005, 2007 phpBB Group