\m/ 80's metal \m/

Информационно-аналитический форум "80 см пыли" (In Search We Trust) "У нас никто никуда не спешит"
Me For You - http://me-4u.com
It is currently 24 Oct 2018

All times are UTC + 3 hours

Spoiler
Chat - temporary registration for foreign users (please leave your application here)







Post new topic Reply to topic  [ 39 posts ]  Go to page 1, 2  Next
Author Message
 
PostPosted: 06 Sep 2015 
\m/ 80 см сала \m/
User avatar
Joined: 12 Mar 2012
Posts: 2589
Age: 25
Name: Nick
Image

Blitzz - 1990 - Do The Blitz (EP)
Steamhammer / 076-76242
https://www.musik-sammler.de/media/41979

1. Money Rules The World 3:30
2. Greed Drives Me Wild 3:34
3. Do The Blitz 4:16
4. Demon Of The Night 3:49
5. Run For Your Life 3:24
6. Tarantella 4:28


_________________
1990 AUROPHON BRAINSTORM (Germany) - lossless
1994 MAUSOLEUM CLASSIX (Belgium-Germany) - lossless
1998 VA - GRIM HARVEST - Complete Metal Massacre Volumes I-XII


Top
 Profile  
 
 
PostPosted: 09 Sep 2015 
Работнечег
User avatar
Joined: 28 Aug 2007
Posts: 5470
Lоcаtion: г. Москва
Age: 29
Name: Дима
Постараюсь сделать! Есть еще компиляция Tarantella, нужно?


Top
 Profile E-mail  
 
 
PostPosted: 09 Sep 2015 
\m/ 80 см сала \m/
User avatar
Joined: 12 Mar 2012
Posts: 2589
Age: 25
Name: Nick
church wrote:
Есть еще компиляция Tarantella, нужно?

Да :true:

_________________
1990 AUROPHON BRAINSTORM (Germany) - lossless
1994 MAUSOLEUM CLASSIX (Belgium-Germany) - lossless
1998 VA - GRIM HARVEST - Complete Metal Massacre Volumes I-XII


Top
 Profile  
 
 
PostPosted: 06 Feb 2016 
Работнечег
User avatar
Joined: 28 Aug 2007
Posts: 5470
Lоcаtion: г. Москва
Age: 29
Name: Дима
Blitzz - Do The Blitzz! EP (1990)

Image
Label: Steamhammer
Genre: Heavy Metal
Country: Germany
Format: Flac + Log + Cue + Covers
Size: 169 Mb

Tracklist:
1. Money Rules the World 03:29
2. Greed Drives Me Wild 03:34
3. Do the Blitz 04:15
4. Demon of the Night 03:48
5. Run for Your Life 03:24
6. Tarantella 04:30

LOG
Exact Audio Copy V0.99 prebeta 5 from 4. May 2009

EAC extraction logfile from 17. January 2016, 17:18

Blitzz / DoThe Blitz EP

Used drive : PIONEER DVD-RW DVR-221 Adapter: 2 ID: 1

Read mode : Secure
Utilize accurate stream : Yes
Defeat audio cache : Yes
Make use of C2 pointers : No

Read offset correction : 6
Overread into Lead-In and Lead-Out : No
Fill up missing offset samples with silence : Yes
Delete leading and trailing silent blocks : No
Null samples used in CRC calculations : Yes
Used interface : Native Win32 interface for Win NT & 2000

Used output format : User Defined Encoder
Selected bitrate : 32 kBit/s
Quality : High
Add ID3 tag : No
Command line compressor : C:\Program Files\Exact Audio Copy\Flac\flac.exe
Additional command line options : -6 -V %s


TOC of the extracted CD

Track | Start | Length | Start sector | End sector
---------------------------------------------------------
1 | 0:00.00 | 3:30.60 | 0 | 15809
2 | 3:30.60 | 3:34.65 | 15810 | 31924
3 | 7:05.50 | 4:16.60 | 31925 | 51184
4 | 11:22.35 | 3:49.15 | 51185 | 68374
5 | 15:11.50 | 3:24.38 | 68375 | 83712
6 | 18:36.13 | 4:28.40 | 83713 | 103852


Range status and errors

Selected range

Filename D:\Музыка\Lossless\Blitzz - Do The Blitz EP (1990)\Blitzz - DoThe Blitz EP.wav

Peak level 98.5 %
Range quality 99.9 %
Copy CRC E2E66B0E
Copy OK

No errors occurred


AccurateRip summary

Track 1 not present in database
Track 2 not present in database
Track 3 not present in database
Track 4 not present in database
Track 5 not present in database
Track 6 not present in database

None of the tracks are present in the AccurateRip database

End of status report

CUE
REM GENRE "Power/Speed Metal"
REM DATE 1990
REM DISCID 3E056806
REM COMMENT "ExactAudioCopy v0.99pb5"
PERFORMER "Blitzz"
TITLE "DoThe Blitz EP"
FILE "Blitzz - DoThe Blitz EP.flac" WAVE
TRACK 01 AUDIO
TITLE "Money Rules The World"
PERFORMER "Blitzz"
INDEX 01 00:00:00
TRACK 02 AUDIO
TITLE "Greed Drives Me Wild"
PERFORMER "Blitzz"
INDEX 00 03:28:40
INDEX 01 03:30:60
TRACK 03 AUDIO
TITLE "Do The Blitz"
PERFORMER "Blitzz"
INDEX 00 07:05:03
INDEX 01 07:05:50
TRACK 04 AUDIO
TITLE "Demon Of The Night"
PERFORMER "Blitzz"
INDEX 00 11:20:02
INDEX 01 11:22:35
TRACK 05 AUDIO
TITLE "Run For Your Life"
PERFORMER "Blitzz"
INDEX 00 15:09:73
INDEX 01 15:11:50
TRACK 06 AUDIO
TITLE "Tarantella"
PERFORMER "Blitzz"
INDEX 00 18:34:70
INDEX 01 18:36:13


Yadisc

Лучше поздно, чем никогда :true:


Top
 Profile E-mail  
 
 
PostPosted: 06 Feb 2016 
Рарник и трушник
User avatar
Joined: 25 Dec 2009
Posts: 8283
Lоcаtion: Москва
Age: 53
Name: Виталий
Спасибо, Дима! :thanx:


Top
 Profile  
 
 
PostPosted: 06 Feb 2016 
Я набрал 1000 сообщений!
Joined: 21 Nov 2009
Posts: 1397
Lоcаtion: praga
Age: 48
Name: Сергей
:thanx:


Top
 Profile E-mail  
 
 
PostPosted: 06 Feb 2016 
Прокъмитолист
User avatar
Joined: 12 Aug 2007
Posts: 6490
Lоcаtion: Санктъ-Петербуркъ
Age: 51
Name: Олекъ
:thanx:

_________________
прокъметол - это музыко, от которово есть прок (ы)


Top
 Profile  
 
 
PostPosted: 07 Feb 2016 
Трешер
User avatar
Joined: 25 Feb 2011
Posts: 1053
Lоcаtion: Харьков
Age: 42
Name: Aleksandr
Просто замечательно ! :dance: бабина на вокале это хорошо !
а лося никто не видел - http://www.metal-archives.com/albums/Blitzz/Tarantella_%281987-1989%29/395365 ?


Top
 Profile E-mail  
 
 
PostPosted: 07 Feb 2016 
Хиппей (support team)
User avatar
Joined: 30 Jul 2007
Posts: 107149
Lоcаtion: Киев (Kyiv, UA)
Age: 45
Name: Andrey
:thanx:

mirror: iFolder l Narod l M-Cloud

_________________


Top
 Profile E-mail  
 
 
PostPosted: 07 Feb 2016 
Персональный статус
User avatar
Joined: 04 Mar 2012
Posts: 237
Lоcаtion: Саратов
Name: Василий
:thanx:


Top
 Profile E-mail  
 
 
PostPosted: 13 Feb 2016 
Хиппей (support team)
User avatar
Joined: 30 Jul 2007
Posts: 107149
Lоcаtion: Киев (Kyiv, UA)
Age: 45
Name: Andrey
Ого, какой трушный спидняк с бабой во главе чуть не пропустили :lob: :lob: :lob:

7/10

_________________


Top
 Profile E-mail  
 
 
PostPosted: 13 Feb 2016 
Хиппей (support team)
User avatar
Joined: 30 Jul 2007
Posts: 107149
Lоcаtion: Киев (Kyiv, UA)
Age: 45
Name: Andrey
Image

Image

_________________


Top
 Profile E-mail  
 
 
PostPosted: 14 Feb 2016 
\m/ 80 см сала \m/
User avatar
Joined: 12 Mar 2012
Posts: 2589
Age: 25
Name: Nick
:thanx:

_________________
1990 AUROPHON BRAINSTORM (Germany) - lossless
1994 MAUSOLEUM CLASSIX (Belgium-Germany) - lossless
1998 VA - GRIM HARVEST - Complete Metal Massacre Volumes I-XII


Top
 Profile  
 
 
PostPosted: 14 Feb 2016 
ТрэшЭрос
User avatar
Joined: 18 Jul 2011
Posts: 2296
Lоcаtion: Гулькевичи
Age: 43
Name: Александр
:thanx:

Scatterbrain wrote:
трушный спидняк с бабой во главе


Через месяц-другой она разменяет 6-й десяток!!! :shok:



:true: :true: :true:

_________________
Thrash no trash!!!


Top
 Profile E-mail  
 
 
PostPosted: 14 Feb 2016 
ТрэшЭрос
User avatar
Joined: 18 Jul 2011
Posts: 2296
Lоcаtion: Гулькевичи
Age: 43
Name: Александр
Code:
Список форумов » - = 80's metal = - » Лосиная бухта / Lossless Music » J

Blitzz (GDR\GER) - 1990 - Do The Blitz (EP)
Ябу-хал? :bodun:

_________________
Thrash no trash!!!


Top
 Profile E-mail  
 
 
PostPosted: 15 Feb 2016 
Хиппей (support team)
User avatar
Joined: 30 Jul 2007
Posts: 107149
Lоcаtion: Киев (Kyiv, UA)
Age: 45
Name: Andrey
Code:
Список форумов » - = 80's metal = - » Лосиная бухта / Lossless Music » J

Blitzz (GDR\GER) - 1990 - Do The Blitz (EP)
Ябу-хал? :bodun:

Не знаю =)) Но это я отделял тему из запросов :fingal:
Саня, спасибо за замеченную неточность-косяк :thanx:

_________________


Top
 Profile E-mail  
 
 
PostPosted: 15 Feb 2016 
А может смените мне статус?..
Joined: 03 Jul 2009
Posts: 792
Lоcаtion: Serbia
Name: Laki
Image
Label: Steamhammer
Genre: Heavy Metal
Country: Germany
Format: Flac + Log + Cue + Covers
Size: 169 Mb



:thanx:


Top
 Profile E-mail  
 
 
PostPosted: 15 Feb 2016 
Генеральный thrasher
User avatar
Joined: 03 Oct 2008
Posts: 3470
Lоcаtion: Ханты-Мансийский АО
Age: 43
Name: Сергей
Постараюсь сделать! Есть еще компиляция Tarantella, нужно?


Дим,сделай лосишку!


Top
 Profile  
 
 
PostPosted: 15 Feb 2016 
Трешер
User avatar
Joined: 25 Feb 2011
Posts: 1053
Lоcаtion: Харьков
Age: 42
Name: Aleksandr
Постараюсь сделать! Есть еще компиляция Tarantella, нужно?

Спрашиваешь, конечно :true:


Top
 Profile E-mail  
 
 
PostPosted: 16 Feb 2016 
Хиппей (support team)
User avatar
Joined: 30 Jul 2007
Posts: 107149
Lоcаtion: Киев (Kyiv, UA)
Age: 45
Name: Andrey
А чего вы там интересного собираетесь на сборнике услышать? :vic:

зы. Ааа, ну разве что кавер на Элиса Купера интересно послушать в студийном варианте :dance:

_________________


Top
 Profile E-mail  
 
Display posts from previous:  Sort by  
Post new topic Reply to topic  [ 39 posts ]  Go to page 1, 2  Next

All times are UTC + 3 hours


Who is online

Users browsing this forum: Yandex [Bot] and 1 guest


You cannot post new topics in this forum
You cannot reply to topics in this forum
You cannot edit your posts in this forum
You cannot delete your posts in this forum
You cannot post attachments in this forum

Search for:
Яндекс.Метрика
Powered by phpBB © 2000, 2002, 2005, 2007 phpBB Group