\m/ 80's metal \m/

Информационно-аналитический форум "80 см пыли" (In Search We Trust) "У нас никто никуда не спешит"
Me For You - http://me-4u.com
It is currently 18 Oct 2018

All times are UTC + 3 hours

Spoiler
Chat - temporary registration for foreign users (please leave your application here)







Post new topic Reply to topic  [ 7 posts ] 
Author Message
 
PostPosted: 21 Jun 2015 
Генеральный thrasher
User avatar
Joined: 03 Oct 2008
Posts: 3463
Lоcаtion: Ханты-Мансийский АО
Age: 43
Name: Сергей
Image

Year:2015
Style:Thrash Metal
Country:Spain
Audio:Flac+Cue+Log+Scans
Size:353Mb
Source:my CD
Label:Xtreem Music
Catalog ID:XM169CD

Line-Up:
Joan Font - drums
Eduardo Moreno - guitars,vocals
Nazareno - bass

Tracklist:
01. Tectonic Chant 00:41
02. Killing-Sophy 02:53
03. Atomic Waste 04:36
04. Introspective Nightmare 05:12
05. Return To Pangea 04:39
06. Beyond The Ritual 05:11
07. Masterade 04:10
08. Ursula Has A Tank 04:46
09. Breathless 04:42
10. Brooding Wraith 04:35
11. Spinning Metal 03:17

"Cue"
REM GENRE "Thrash Metal"
REM DATE 2015
REM DISCID 920A7F0B
REM COMMENT "ExactAudioCopy v0.99pb5"
PERFORMER "Breathless"
TITLE "Return To Pangea"
FILE "Breathless - Return To Pangea.flac" WAVE
TRACK 01 AUDIO
TITLE "Tectonic Chant"
PERFORMER "Breathless"
INDEX 01 00:00:00
TRACK 02 AUDIO
TITLE "Killing-sophy"
PERFORMER "Breathless"
INDEX 01 00:41:45
TRACK 03 AUDIO
TITLE "Atomic Waste"
PERFORMER "Breathless"
INDEX 01 03:35:09
TRACK 04 AUDIO
TITLE "Introspective Nightmare"
PERFORMER "Breathless"
INDEX 01 08:11:24
TRACK 05 AUDIO
TITLE "Return to Pangea"
PERFORMER "Breathless"
INDEX 01 13:23:45
TRACK 06 AUDIO
TITLE "Beyond the Ritual "
PERFORMER "Breathless"
INDEX 01 18:03:43
TRACK 07 AUDIO
TITLE "Masterade"
PERFORMER "Breathless"
INDEX 01 23:15:10
TRACK 08 AUDIO
TITLE "Ursula Has a Tank"
PERFORMER "Breathless"
INDEX 01 27:26:07
TRACK 09 AUDIO
TITLE "Breathless"
PERFORMER "Breathless"
INDEX 01 32:12:09
TRACK 10 AUDIO
TITLE "Brooding Wraith"
PERFORMER "Breathless"
INDEX 01 36:54:30
TRACK 11 AUDIO
TITLE "Spinning Metal"
PERFORMER "Breathless"
INDEX 01 41:30:00

"Log"
Exact Audio Copy V0.99 prebeta 5 from 4. May 2009

Отчёт EAC об извлечении, выполненном 14. апреля 2015, 13:02

Breathless / Return To Pangea

Дисковод: MATSHITADVD-RAM UJ8A0AS Adapter: 0 ID: 1

Режим чтения : Достоверность
Использование точного потока : Да
Отключение кэша аудио : Да
Использование указателей C2 : Нет

Коррекция смещения при чтении : 102
Способность читать области Lead-in и Lead-out : Нет
Заполнение пропущенных сэмплов тишиной : Да
Удаление блоков с тишиной в начале и конце : Нет
При вычислениях CRC использовались нулевые сэмплы : Да
Интерфейс : Встроенный Win32-интерфейс для Win NT/2000

Выходной формат : Пользовательский кодировщик
Выбранный битрейт : 1024 kBit/s
Качество : Высокий
Добавление ID3-тэга : Нет
Утилита сжатия : C:\Program Files\Exact Audio Copy\FLAC\FLAC.EXE
Дополнительные параметры : -6 -V -T "ARTIST=%a" -T "TITLE=%t" -T "ALBUM=%g" -T "DATE=%y" -T "TRACKNUMBER=%n" -T "GENRE=%m" -T "COMMENT=%e" %s -o %d


TOC извлечённого CD

Трек | Старт | Длительность | Начальный сектор | Конечный сектор
---------------------------------------------------------------------
1 | 0:00.00 | 0:41.45 | 0 | 3119
2 | 0:41.45 | 2:53.39 | 3120 | 16133
3 | 3:35.09 | 4:36.15 | 16134 | 36848
4 | 8:11.24 | 5:12.21 | 36849 | 60269
5 | 13:23.45 | 4:39.73 | 60270 | 81267
6 | 18:03.43 | 5:11.42 | 81268 | 104634
7 | 23:15.10 | 4:10.72 | 104635 | 123456
8 | 27:26.07 | 4:46.02 | 123457 | 144908
9 | 32:12.09 | 4:42.21 | 144909 | 166079
10 | 36:54.30 | 4:35.45 | 166080 | 186749
11 | 41:30.00 | 3:17.01 | 186750 | 201525


Характеристики диапазона извлечения и сообщения об ошибках

Выбранный диапазон

Имя файла C:\Users\эксперт\Music\Breathless - Return To Pangea.wav

Пиковый уровень 97.0 %
Качество диапазона 100.0 %
CRC копии DE6CAC4C
Копирование... OK

Ошибок не произошло


AccurateRip: сводка

Трек 1 нет в базе данных
Трек 2 нет в базе данных
Трек 3 нет в базе данных
Трек 4 нет в базе данных
Трек 5 нет в базе данных
Трек 6 нет в базе данных
Трек 7 нет в базе данных
Трек 8 нет в базе данных
Трек 9 нет в базе данных
Трек 10 нет в базе данных
Трек 11 нет в базе данных

Ни одного трека нет в базе AccurateRip

Конец отчёта


Return To Pangea


Top
 Profile  
 
 
PostPosted: 21 Jun 2015 
консэрваторъ
Joined: 11 Aug 2007
Posts: 16039
Lоcаtion: Псков
Age: 44
Name: Сергей
Испаньёла очередная трэшовая, явно круть очередная...

_________________
THRASH 'EM ALL


Top
 Profile E-mail  
 
 
PostPosted: 21 Jun 2015 
консэрваторъ
Joined: 11 Aug 2007
Posts: 16039
Lоcаtion: Псков
Age: 44
Name: Сергей
Вокал немного подкачал...

Breathless - Return to Pangea (Full Album) | +

Благодарствую, Серёг!..

_________________
THRASH 'EM ALL


Top
 Profile E-mail  
 
 
PostPosted: 21 Jun 2015 
Генеральный thrasher
User avatar
Joined: 03 Oct 2008
Posts: 3463
Lоcаtion: Ханты-Мансийский АО
Age: 43
Name: Сергей
Альбом неплох в принципе.Но не скажу,что в восторге...А вот Рэйзоры мои где-то болтаются,хотя по моим расчётам должны были уже прийти.


Top
 Profile  
 
 
PostPosted: 21 Jun 2015 
консэрваторъ
Joined: 11 Aug 2007
Posts: 16039
Lоcаtion: Псков
Age: 44
Name: Сергей
Ага Рэйзоры ждём... А этот альбом действительно тускл... :(

_________________
THRASH 'EM ALL


Top
 Profile E-mail  
 
 
PostPosted: 21 Jun 2015 
ТрэшЭрос
User avatar
Joined: 18 Jul 2011
Posts: 2296
Lоcаtion: Гулькевичи
Age: 43
Name: Александр
Вокал немного подкачал...

По мне - так вообще тяжеловат для длительного прослушивания этот альбом. Однообразие какое-то, нудность... :( Второй раз слушать не буду. Пока...
Спасибо, Серёга, за труды! :true:

_________________
Thrash no trash!!!


Top
 Profile E-mail  
 
 
PostPosted: 22 Jun 2015 
Прокъмитолист
User avatar
Joined: 12 Aug 2007
Posts: 6488
Lоcаtion: Санктъ-Петербуркъ
Age: 51
Name: Олекъ
заценил на ютубе - весьма неплохо. спасибо, Серёг! :thanx:

_________________
прокъметол - это музыко, от которово есть прок (ы)


Top
 Profile  
 
Display posts from previous:  Sort by  
Post new topic Reply to topic  [ 7 posts ] 

All times are UTC + 3 hours


Who is online

Users browsing this forum: No registered users and 1 guest


You cannot post new topics in this forum
You cannot reply to topics in this forum
You cannot edit your posts in this forum
You cannot delete your posts in this forum
You cannot post attachments in this forum

Search for:
Яндекс.Метрика
Powered by phpBB © 2000, 2002, 2005, 2007 phpBB Group