\m/ 80's metal \m/

Информационно-аналитический форум "80 см пыли" (In Search We Trust) "У нас никто никуда не спешит"
Me For You - http://me-4u.com
It is currently 11 Dec 2018

All times are UTC + 3 hours

Spoiler
Chat - temporary registration for foreign users (please leave your application here)







Post new topic Reply to topic  [ 6 posts ] 
Author Message
 
PostPosted: 18 Apr 2015 
Работнечег
User avatar
Joined: 28 Aug 2007
Posts: 5598
Lоcаtion: г. Москва
Age: 29
Name: Дима
Image

Label: Independent
Genre: Heavy Metal
Country: Canada
Format: Flac + Log + Cue + Covers
Size: 305 Mb

Line-Up:
Jeff Klingbeil - Vocals, Guitars (ex-Swarm, ex-Final Stage)
Norm Michaud - Bass
Shawn Bastien - Drums (ex-Swarm)


Tracklist:
1. Descendents of Death 06:25
2. Fire to the Coals 05:04
3. Tribulation 06:09
4. Waiting 06:49
5. Wretched Ways 03:53
6. Captive State of Mind 05:40
7. Sands of Time 04:12
8. Rusted Icons 05:31

LOG
Exact Audio Copy V0.99 prebeta 5 from 4. May 2009

EAC extraction logfile from 4. April 2015, 18:41

Betrayer / Rusted Icons

Used drive : PIONEER DVD-RW DVR-221 Adapter: 2 ID: 1

Read mode : Secure
Utilize accurate stream : Yes
Defeat audio cache : Yes
Make use of C2 pointers : No

Read offset correction : 6
Overread into Lead-In and Lead-Out : No
Fill up missing offset samples with silence : Yes
Delete leading and trailing silent blocks : No
Null samples used in CRC calculations : Yes
Used interface : Native Win32 interface for Win NT & 2000

Used output format : User Defined Encoder
Selected bitrate : 32 kBit/s
Quality : High
Add ID3 tag : No
Command line compressor : C:\Program Files\Exact Audio Copy\Flac\flac.exe
Additional command line options : -6 -V %s


TOC of the extracted CD

Track | Start | Length | Start sector | End sector
---------------------------------------------------------
1 | 0:00.00 | 6:24.73 | 0 | 28872
2 | 6:24.73 | 5:01.21 | 28873 | 51468
3 | 11:26.19 | 6:09.20 | 51469 | 79163
4 | 17:35.39 | 6:48.52 | 79164 | 109815
5 | 24:24.16 | 3:53.69 | 109816 | 127359
6 | 28:18.10 | 5:39.64 | 127360 | 152848
7 | 33:57.74 | 4:11.38 | 152849 | 171711
8 | 38:09.37 | 5:33.00 | 171712 | 196686


Range status and errors

Selected range

Filename D:\Музыка\Lossless\Betrayer - Rusted Icons (2001)\Betrayer - Rusted Icons.wav

Peak level 100.0 %
Range quality 100.0 %
Copy CRC A14D2ABD
Copy OK

No errors occurred


AccurateRip summary

Track 1 cannot be verified as accurate (confidence 1) [1DF6993B], AccurateRip returned [B0082441]
Track 2 cannot be verified as accurate (confidence 1) [FC32E768], AccurateRip returned [5A92BD60]
Track 3 cannot be verified as accurate (confidence 1) [4720E6DB], AccurateRip returned [0439D7AB]
Track 4 cannot be verified as accurate (confidence 1) [25C67257], AccurateRip returned [FE2AC037]
Track 5 cannot be verified as accurate (confidence 1) [A37D4381], AccurateRip returned [FAB049F9]
Track 6 cannot be verified as accurate (confidence 1) [B9736DC4], AccurateRip returned [80683FEC]
Track 7 cannot be verified as accurate (confidence 1) [A566E9A4], AccurateRip returned [05A8FC64]
Track 8 cannot be verified as accurate (confidence 1) [CE6F6057], AccurateRip returned [9EB8DF92]

No tracks could be verified as accurate
You may have a different pressing from the one(s) in the database

End of status report

CUE
REM GENRE "Heavy Metal"
REM DATE 2001
REM DISCID 6B0A3E08
REM COMMENT "ExactAudioCopy v0.99pb5"
PERFORMER "Betrayer"
TITLE "Rusted Icons"
FILE "Betrayer - Rusted Icons.flac" WAVE
TRACK 01 AUDIO
TITLE "Decendants Of Death"
PERFORMER "Betrayer"
INDEX 01 00:00:00
TRACK 02 AUDIO
TITLE "Fire To The Coals"
PERFORMER "Betrayer"
INDEX 00 06:22:73
INDEX 01 06:24:73
TRACK 03 AUDIO
TITLE "Tribulation"
PERFORMER "Betrayer"
INDEX 00 11:24:19
INDEX 01 11:26:19
TRACK 04 AUDIO
TITLE "Waiting"
PERFORMER "Betrayer"
INDEX 00 17:33:39
INDEX 01 17:35:39
TRACK 05 AUDIO
TITLE "Wretched Ways"
PERFORMER "Betrayer"
INDEX 00 24:22:16
INDEX 01 24:24:16
TRACK 06 AUDIO
TITLE "Captive State Of Mind"
PERFORMER "Betrayer"
INDEX 00 28:16:10
INDEX 01 28:18:10
TRACK 07 AUDIO
TITLE "Sand Of Time"
PERFORMER "Betrayer"
INDEX 00 33:55:74
INDEX 01 33:57:74
TRACK 08 AUDIO
TITLE "Rusted Icons"
PERFORMER "Betrayer"
INDEX 00 38:07:37
INDEX 01 38:09:37


Yadi

Впервые этот альбом услышал очень давно, когда только начинал еще увлекаться тяжелой музыки и тогда он надолго засел в плеере. Сейчас прикупил диск и с удовольствием переслушал! Это не олдскул, но и не модерн. Такой скорее немного самобытный хэви с приятным вокалистом!




Top
 Profile E-mail  
 
 
PostPosted: 19 Apr 2015 
Генеральный thrasher
User avatar
Joined: 03 Oct 2008
Posts: 3534
Lоcаtion: Ханты-Мансийский АО
Age: 43
Name: Сергей
Дим,у тебя есть их епишка Shadowed Force?Если нет,могу задарить тебе.Взял по случаю и не впечатлился.


Top
 Profile  
 
 
PostPosted: 19 Apr 2015 
спирт 100%
User avatar
Joined: 22 Sep 2008
Posts: 4323
Age: 47
Name: Саня
Дима :thanx: !


Top
 Profile  
 
 
PostPosted: 20 Apr 2015 
Прокъмитолист
User avatar
Joined: 12 Aug 2007
Posts: 6512
Lоcаtion: Санктъ-Петербуркъ
Age: 51
Name: Олекъ
:thanx:

_________________
прокъметол - это музыко, от которово есть прок (ы)


Top
 Profile  
 
 
PostPosted: 20 Apr 2015 
Хиппей (support team)
User avatar
Joined: 30 Jul 2007
Posts: 108811
Lоcаtion: Киев (Kyiv, UA)
Age: 45
Name: Andrey
:thanx:

Image Image Image Image

mirror: iFolder l Narod l M-Cloud

Image Image Image Image

_________________


Top
 Profile E-mail  
 
 
PostPosted: 21 Apr 2015 
Хиппей (support team)
User avatar
Joined: 30 Jul 2007
Posts: 108811
Lоcаtion: Киев (Kyiv, UA)
Age: 45
Name: Andrey
Забавная музыка. Вторая песня - помесь Megadeth & Annihilator :lob:
Это после первой прослушки. Остальное пока никак.
Слушаю повторно альбом....
О, 5-й трэк снова хорош. Но вновь напоминает облегчённый Мегодез после 90-го с мурлыканием и солячками мелодичными =)
7-я песня - хитовая полу-балладка :meloman:

Итого, примерно 5 из 10 оценочка :dance:

_________________


Top
 Profile E-mail  
 
Display posts from previous:  Sort by  
Post new topic Reply to topic  [ 6 posts ] 

All times are UTC + 3 hours


Who is online

Users browsing this forum: No registered users and 4 guests


You cannot post new topics in this forum
You cannot reply to topics in this forum
You cannot edit your posts in this forum
You cannot delete your posts in this forum
You cannot post attachments in this forum

Search for:
Яндекс.Метрика
Powered by phpBB © 2000, 2002, 2005, 2007 phpBB Group