\m/ 80's metal \m/

Информационно-аналитический форум "80 см пыли" (In Search We Trust) "У нас никто никуда не спешит"
Me For You - http://me-4u.com
It is currently 21 Oct 2018

All times are UTC + 3 hours

Spoiler
Chat - temporary registration for foreign users (please leave your application here)







Post new topic Reply to topic  [ 10 posts ] 
Author Message
 
PostPosted: 02 Jan 2015 
Работнечег
User avatar
Joined: 28 Aug 2007
Posts: 5468
Lоcаtion: г. Москва
Age: 29
Name: Дима
Image

Band: Blind Petition
Album: No Prisoners
Label: Breakin Records
Genre: Hard Rock
Country: Austria
Format: Flac + Log + Cue + Covers + Videoclip
Size: 628 Mb

Line-Up:
Alex Lipscher - Vocals (Bad Sellin' Record)
Hannes "Fusel" Bartsch - Electric-, Acoustic-, Slide Guitars
Martin Sobotnik - Electric Guitars (ex-Mangroove)
Bertl Bartsch - Electric Guitars, Blues Harp
Gerhard Kovatsits - Bass
Thomas Wildner - Drums


Tracklist:
1. The Orchestra 04:34
2. Academy 04:32
3. Those Pictures 03:40
4. Miss Fascination 05:24
5. Chimney 04:21
6. Cheerleaders 03:54
7. Good Soul 04:45
8. Copy My Style 04:01
9. Mr. Jenkin’ James 03:35
10. Routine 04:54
11. Good Bye Robby 02:28

LOG
Exact Audio Copy V0.99 prebeta 5 from 4. May 2009

EAC extraction logfile from 27. December 2014, 20:38

Blind Petition / No Prisoners

Used drive : PIONEER DVD-RW DVR-221 Adapter: 2 ID: 1

Read mode : Secure
Utilize accurate stream : Yes
Defeat audio cache : Yes
Make use of C2 pointers : No

Read offset correction : 6
Overread into Lead-In and Lead-Out : No
Fill up missing offset samples with silence : Yes
Delete leading and trailing silent blocks : No
Null samples used in CRC calculations : Yes
Used interface : Native Win32 interface for Win NT & 2000

Used output format : User Defined Encoder
Selected bitrate : 32 kBit/s
Quality : High
Add ID3 tag : No
Command line compressor : C:\Program Files\Exact Audio Copy\Flac\flac.exe
Additional command line options : -6 -V %s


TOC of the extracted CD

Track | Start | Length | Start sector | End sector
---------------------------------------------------------
1 | 0:00.00 | 4:35.01 | 0 | 20625
2 | 4:35.01 | 4:32.07 | 20626 | 41032
3 | 9:07.08 | 3:40.51 | 41033 | 57583
4 | 12:47.59 | 5:24.74 | 57584 | 81957
5 | 18:12.58 | 4:21.25 | 81958 | 101557
6 | 22:34.08 | 3:54.39 | 101558 | 119146
7 | 26:28.47 | 4:45.26 | 119147 | 140547
8 | 31:13.73 | 4:01.38 | 140548 | 158660
9 | 35:15.36 | 3:35.23 | 158661 | 174808
10 | 38:50.59 | 4:54.11 | 174809 | 196869
11 | 43:44.70 | 2:26.20 | 196870 | 207839
12 | 48:43.15 | 30:23.57 | 219240 | 356021


Range status and errors

Selected range

Filename D:\Музыка\Lossless\Blind Petition - No Prisoners (2004)\Blind Petition - No Prisoners.wav

Peak level 98.9 %
Range quality 100.0 %
Copy CRC 738061A0
Copy OK

No errors occurred


AccurateRip summary

Track 1 not present in database
Track 2 not present in database
Track 3 not present in database
Track 4 not present in database
Track 5 not present in database
Track 6 not present in database
Track 7 not present in database
Track 8 not present in database
Track 9 not present in database
Track 10 not present in database
Track 11 not present in database

None of the tracks are present in the AccurateRip database

End of status report

CUE
REM GENRE "Hard Rock"
REM DATE 2004
REM DISCID B2128A0C
REM COMMENT "ExactAudioCopy v0.99pb5"
PERFORMER "Blind Petition"
TITLE "No Prisoners"
FILE "Blind Petition - No Prisoners.flac" WAVE
TRACK 01 AUDIO
TITLE "The Orchestra"
PERFORMER "Blind Petition"
INDEX 01 00:00:00
TRACK 02 AUDIO
TITLE "Academy"
PERFORMER "Blind Petition"
INDEX 01 04:35:01
TRACK 03 AUDIO
TITLE "Those Pictures"
PERFORMER "Blind Petition"
INDEX 01 09:07:08
TRACK 04 AUDIO
TITLE "Miss Fascination"
PERFORMER "Blind Petition"
INDEX 00 12:45:59
INDEX 01 12:47:59
TRACK 05 AUDIO
TITLE "Chimney"
PERFORMER "Blind Petition"
INDEX 01 18:12:58
TRACK 06 AUDIO
TITLE "Cheerleaders"
PERFORMER "Blind Petition"
INDEX 01 22:34:08
TRACK 07 AUDIO
TITLE "Good Soul"
PERFORMER "Blind Petition"
INDEX 00 26:27:47
INDEX 01 26:28:47
TRACK 08 AUDIO
TITLE "Copy My Stile"
PERFORMER "Blind Petition"
INDEX 00 31:12:73
INDEX 01 31:13:73
TRACK 09 AUDIO
TITLE "Mr. Jenkin' James"
PERFORMER "Blind Petition"
INDEX 00 35:13:36
INDEX 01 35:15:36
TRACK 10 AUDIO
TITLE "Routine"
PERFORMER "Blind Petition"
INDEX 01 38:50:59
TRACK 11 AUDIO
TITLE "Good Bye Robby"
PERFORMER "Blind Petition"
INDEX 00 43:43:70
INDEX 01 43:44:70


FLAC

Довольно крепкий хард-рок, не могу здесь выделить какие-то песни, но в целом альбом звучит монолитно. В архив также добавлен клип на песню Academy!


Top
 Profile E-mail  
 
 
PostPosted: 02 Jan 2015 
адын фелософъ прокметолу
User avatar
Joined: 22 Oct 2009
Posts: 2702
Lоcаtion: Сочи
Age: 41
Name: Сергей
:thanx:

_________________
А теперь ... клоунов и стриптизёрш!


Top
 Profile E-mail  
 
 
PostPosted: 02 Jan 2015 
Персональный статус
User avatar
Joined: 28 Mar 2013
Posts: 420
Lоcаtion: Russia (Bryansk)
Age: 25
Name: Michael
Спасибо!!!! :dance:


Top
 Profile E-mail  
 
 
PostPosted: 02 Jan 2015 
Хиппей (support team)
User avatar
Joined: 30 Jul 2007
Posts: 107089
Lоcаtion: Киев (Kyiv, UA)
Age: 45
Name: Andrey
Ой, спасибо, весной этот альбом в мп3 гонял :thanx:

_________________


Top
 Profile E-mail  
 
 
PostPosted: 02 Jan 2015 
Я набрал 1000 сообщений!
Joined: 24 Oct 2009
Posts: 2065
Lоcаtion: Оренбург
Age: 55
Name: Юра
Димыч :thanx:

_________________
:dash: I am happy!


Top
 Profile E-mail  
 
 
PostPosted: 09 Jan 2015 
Работнечег
User avatar
Joined: 28 Aug 2007
Posts: 5468
Lоcаtion: г. Москва
Age: 29
Name: Дима
Ой, спасибо, весной этот альбом в мп3 гонял :thanx:

Сомневаюсь, что именно этот, его вроде особо в мп3 нигде не было года полтора назад точно ;)


Top
 Profile E-mail  
 
 
PostPosted: 09 Jan 2015 
спирт 100%
User avatar
Joined: 22 Sep 2008
Posts: 4305
Age: 47
Name: Саня
Дима , Спасибо!!! :thanx:


Top
 Profile  
 
 
PostPosted: 09 Jan 2015 
Хиппей (support team)
User avatar
Joined: 30 Jul 2007
Posts: 107089
Lоcаtion: Киев (Kyiv, UA)
Age: 45
Name: Andrey
Ой, спасибо, весной этот альбом в мп3 гонял :thanx:

Сомневаюсь, что именно этот, его вроде особо в мп3 нигде не было года полтора назад точно ;)

Ну вот проверю, как послушаю лосика. Скорее всего слушал я именно его, давно скачавши откуда-то. Несмотря на недоступность :vic:
Но картинки и название альбома очень знакомы :fingal:

_________________


Top
 Profile E-mail  
 
 
PostPosted: 12 Jan 2015 
Alive Again
User avatar
Joined: 17 Dec 2008
Posts: 4704
Lоcаtion: Курск Воронеж Оскол
Age: 44
Name: Дмитрий
:thanx:


Top
 Profile E-mail  
 
 
PostPosted: 14 Jan 2015 
Почётный металлург
User avatar
Joined: 15 Sep 2007
Posts: 4357
Lоcаtion: Хабаровск
Age: 58
Name: чуть выше
:thanx: :thanx: :thanx:

_________________
Коль будешь людей ты ослами честить,
тебе человеком меж них не прослыть!
(Саади, персидский поэт, 13в.)


Top
 Profile  
 
Display posts from previous:  Sort by  
Post new topic Reply to topic  [ 10 posts ] 

All times are UTC + 3 hours


Who is online

Users browsing this forum: No registered users and 4 guests


You cannot post new topics in this forum
You cannot reply to topics in this forum
You cannot edit your posts in this forum
You cannot delete your posts in this forum
You cannot post attachments in this forum

Search for:
Яндекс.Метрика
Powered by phpBB © 2000, 2002, 2005, 2007 phpBB Group