\m/ 80's metal \m/

Информационно-аналитический форум "80 см пыли" (In Search We Trust) "У нас никто никуда не спешит"
Me For You - http://me-4u.com
It is currently 20 Oct 2018

All times are UTC + 3 hours

Spoiler
Chat - temporary registration for foreign users (please leave your application here)







Post new topic Reply to topic  [ 8 posts ] 
Author Message
 
PostPosted: 13 Oct 2014 
Генеральный thrasher
User avatar
Joined: 03 Oct 2008
Posts: 3468
Lоcаtion: Ханты-Мансийский АО
Age: 43
Name: Сергей
Image

Year:2012
Style:Thrash Metal
Country:Brazil
Audio:Flac+Cue+Log+Scans
Size:172Mb
Source:my CD
Label:Self Released

Line-Up:
Evaldo Castro - guitars
Sandinho Costa - drums
Afranio Pires - bass
Naldao Souza - vocals,guitar

Tracklist:
01. Intro 01:37
02. Apocalipto 03:35
03. Alcoholic Domination 00:25
04. Território Perdido 04:03
05. Metal, Essa é Minha Vida 02:34
06. Zona Leste Town 02:23
07. Morro de Fome Mas Não Trabalho 01:27
08. Futuro Incerto 05:30

"Cue"
REM GENRE "Thrash Metal"
REM DATE 2012
REM DISCID 71051208
REM COMMENT "ExactAudioCopy v0.99pb5"
PERFORMER "Brutal Exuberancia"
TITLE "Territorio Perdido"
FILE "Brutal Exuberancia - Territorio Perdido.flac" WAVE
TRACK 01 AUDIO
TITLE "Intro"
PERFORMER "Brutal Exuberancia"
INDEX 01 00:00:00
TRACK 02 AUDIO
TITLE "Apocalipto"
PERFORMER "Brutal Exuberancia"
INDEX 01 01:37:17
TRACK 03 AUDIO
TITLE "Alcoholic Domination"
PERFORMER "Brutal Exuberancia"
INDEX 01 05:13:03
TRACK 04 AUDIO
TITLE "Território Perdido"
PERFORMER "Brutal Exuberancia"
INDEX 01 05:38:48
TRACK 05 AUDIO
TITLE "Metal, Essa é Minha Vida"
PERFORMER "Brutal Exuberancia"
INDEX 01 09:42:39
TRACK 06 AUDIO
TITLE "Zona Leste Town"
PERFORMER "Brutal Exuberancia"
INDEX 01 12:16:48
TRACK 07 AUDIO
TITLE "Morro de Fome Mas Não Trabalho"
PERFORMER "Brutal Exuberancia"
INDEX 01 14:40:11
TRACK 08 AUDIO
TITLE "Futuro Incerto"
PERFORMER "Brutal Exuberancia"
INDEX 01 16:07:44

"Log"
Exact Audio Copy V0.99 prebeta 5 from 4. May 2009

Отчёт EAC об извлечении, выполненном 26. сентября 2013, 14:08

Brutal Exuberancia / Territorio Perdido

Дисковод: MATSHITADVD-RAM UJ8A0AS Adapter: 0 ID: 1

Режим чтения : Достоверность
Использование точного потока : Да
Отключение кэша аудио : Да
Использование указателей C2 : Нет

Коррекция смещения при чтении : 102
Способность читать области Lead-in и Lead-out : Нет
Заполнение пропущенных сэмплов тишиной : Да
Удаление блоков с тишиной в начале и конце : Нет
При вычислениях CRC использовались нулевые сэмплы : Да
Интерфейс : Встроенный Win32-интерфейс для Win NT/2000

Выходной формат : Пользовательский кодировщик
Выбранный битрейт : 1024 kBit/s
Качество : Высокий
Добавление ID3-тэга : Нет
Утилита сжатия : C:\Program Files\Exact Audio Copy\FLAC\FLAC.EXE
Дополнительные параметры : -6 -V -T "ARTIST=%a" -T "TITLE=%t" -T "ALBUM=%g" -T "DATE=%y" -T "TRACKNUMBER=%n" -T "GENRE=%m" -T "COMMENT=%e" %s -o %d


TOC извлечённого CD

Трек | Старт | Длительность | Начальный сектор | Конечный сектор
---------------------------------------------------------------------
1 | 0:00.00 | 1:37.17 | 0 | 7291
2 | 1:37.17 | 3:35.61 | 7292 | 23477
3 | 5:13.03 | 0:25.45 | 23478 | 25397
4 | 5:38.48 | 4:03.66 | 25398 | 43688
5 | 9:42.39 | 2:34.09 | 43689 | 55247
6 | 12:16.48 | 2:23.38 | 55248 | 66010
7 | 14:40.11 | 1:27.33 | 66011 | 72568
8 | 16:07.44 | 5:30.62 | 72569 | 97380


Характеристики диапазона извлечения и сообщения об ошибках

Выбранный диапазон

Имя файла C:\Users\эксперт\Music\Brutal Exuberancia - Territorio Perdido.wav

Пиковый уровень 100.0 %
Качество диапазона 100.0 %
CRC копии 7706B321
Копирование... OK

Ошибок не произошло


AccurateRip: сводка

Трек 1 нет в базе данных
Трек 2 нет в базе данных
Трек 3 нет в базе данных
Трек 4 нет в базе данных
Трек 5 нет в базе данных
Трек 6 нет в базе данных
Трек 7 нет в базе данных
Трек 8 нет в базе данных

Ни одного трека нет в базе AccurateRip

Конец отчёта


Territorio Perdido

Коротенький первенец бразилов.Не скажу,что гениальная музыка...Но мне нравится.Посмотрим,что из них выйдет дальше и выйдет ли...


Top
 Profile  
 
 
PostPosted: 13 Oct 2014 
Прокъмитолист
User avatar
Joined: 12 Aug 2007
Posts: 6490
Lоcаtion: Санктъ-Петербуркъ
Age: 51
Name: Олекъ
:thanx:

_________________
прокъметол - это музыко, от которово есть прок (ы)


Top
 Profile  
 
 
PostPosted: 13 Oct 2014 
А может смените мне статус?..
User avatar
Joined: 28 Jul 2008
Posts: 907
Lоcаtion: Украина---Днепропетровск
Age: 44
Name: Александр
:thanx:

_________________
Музыка в которой я растворяюсь многих угнетает......


Top
 Profile  
 
 
PostPosted: 13 Oct 2014 
Дежурный по КУПу
User avatar
Joined: 17 Aug 2007
Posts: 5869
Age: 50
Name: Ге
Спасибо :true:

_________________
http://jp-mania.ru/
http://jp-tourdates.ucoz.ru/


Top
 Profile  
 
 
PostPosted: 13 Oct 2014 
Хиппей (support team)
User avatar
Joined: 30 Jul 2007
Posts: 107074
Lоcаtion: Киев (Kyiv, UA)
Age: 45
Name: Andrey
Приятное название для славянского уха :thanx:

mirror: Narod l M-Cloud

_________________


Top
 Profile E-mail  
 
 
PostPosted: 13 Oct 2014 
Труъ
User avatar
Joined: 27 Feb 2009
Posts: 186
Lоcаtion: Питер
Age: 51
Name: Олег
:thanx:


Top
 Profile  
 
 
PostPosted: 13 Oct 2014 
Хиппей (support team)
User avatar
Joined: 30 Jul 2007
Posts: 107074
Lоcаtion: Киев (Kyiv, UA)
Age: 45
Name: Andrey
Scatterbrain wrote:
Приятное название для славянского уха

Мало того - приятная очень хардкористая музыка на португальско-бразильско-испанском =) :true: :true: :true:

6+/10

_________________


Top
 Profile E-mail  
 
 
PostPosted: 15 Oct 2014 
Alive Again
User avatar
Joined: 17 Dec 2008
Posts: 4704
Lоcаtion: Курск Воронеж Оскол
Age: 44
Name: Дмитрий
:thanx:


Top
 Profile E-mail  
 
Display posts from previous:  Sort by  
Post new topic Reply to topic  [ 8 posts ] 

All times are UTC + 3 hours


Who is online

Users browsing this forum: No registered users and 2 guests


You cannot post new topics in this forum
You cannot reply to topics in this forum
You cannot edit your posts in this forum
You cannot delete your posts in this forum
You cannot post attachments in this forum

Search for:
Яндекс.Метрика
Powered by phpBB © 2000, 2002, 2005, 2007 phpBB Group