\m/ 80's metal \m/

Информационно-аналитический форум "80 см пыли" (In Search We Trust) "У нас никто никуда не спешит"
Me For You - http://me-4u.com
It is currently 11 Dec 2018

All times are UTC + 3 hours

Spoiler
Chat - temporary registration for foreign users (please leave your application here)







Post new topic Reply to topic  [ 12 posts ] 
Author Message
 
PostPosted: 25 Aug 2014 
Генеральный thrasher
User avatar
Joined: 03 Oct 2008
Posts: 3534
Lоcаtion: Ханты-Мансийский АО
Age: 43
Name: Сергей
Image

Year:1993
Style:Thrash Metal
Country:U.S.A.
Audio:Flac+Cue+Log+Scans
Size:361Mb
Source:my CD
Label:Wonderland

Line-Up:
Marcus N. Colon - guitars
Chris Ackermann - vocals
Bob McCue - guitars
Jeff Mason - drums
Jeff Lain - bass

Tracklist:
01. Renouncement 03:37
02. The Usurper 04:16
03. Carnival Of Madness 05:34
04. Ichabod 03:55
05. Forest Of Horrors 04:31
06. Race Of Hypocrisy 03:35
07. As I Turned Away 04:20
08. Whispers Of Chaos 04:19
09. Strength Of The Innocent 04:55
10. Retaliation Strike 02:55
11. Frantic 03:45

"Cue"
REM GENRE "Thrash Metal"
REM DATE 1993
REM DISCID 8C0ABB0B
REM COMMENT "ExactAudioCopy v0.99pb5"
PERFORMER "Betrayal"
TITLE "The Passing"
FILE "Betrayal - The Passing.flac" WAVE
TRACK 01 AUDIO
TITLE "Renouncement"
PERFORMER "Betrayal"
INDEX 01 00:00:00
TRACK 02 AUDIO
TITLE "The Usurper"
PERFORMER "Betrayal"
INDEX 00 03:37:27
INDEX 01 03:37:70
TRACK 03 AUDIO
TITLE "Carnival Of Madness"
PERFORMER "Betrayal"
INDEX 01 07:54:07
TRACK 04 AUDIO
TITLE "Ichabod"
PERFORMER "Betrayal"
INDEX 00 13:28:61
INDEX 01 13:29:40
TRACK 05 AUDIO
TITLE "Forest Of Horrors"
PERFORMER "Betrayal"
INDEX 01 17:25:10
TRACK 06 AUDIO
TITLE "Race Of Hypocrisy"
PERFORMER "Betrayal"
INDEX 01 21:56:47
TRACK 07 AUDIO
TITLE "As I Turned Away"
PERFORMER "Betrayal"
INDEX 01 25:32:37
TRACK 08 AUDIO
TITLE "Whispers Of Chaos"
PERFORMER "Betrayal"
INDEX 01 29:52:42
TRACK 09 AUDIO
TITLE "Strength Of The Innocent"
PERFORMER "Betrayal"
INDEX 01 34:11:50
TRACK 10 AUDIO
TITLE "Retaliatory Strike"
PERFORMER "Betrayal"
INDEX 01 39:06:70
TRACK 11 AUDIO
TITLE "Frantic"
PERFORMER "Betrayal"
INDEX 00 42:01:71
INDEX 01 42:02:27

"Log"
Exact Audio Copy V0.99 prebeta 5 from 4. May 2009

Отчёт EAC об извлечении, выполненном 4. апреля 2013, 18:04

Betrayal / The Passing

Дисковод: MATSHITADVD-RAM UJ8A0AS Adapter: 0 ID: 1

Режим чтения : Достоверность
Использование точного потока : Да
Отключение кэша аудио : Да
Использование указателей C2 : Нет

Коррекция смещения при чтении : 102
Способность читать области Lead-in и Lead-out : Нет
Заполнение пропущенных сэмплов тишиной : Да
Удаление блоков с тишиной в начале и конце : Нет
При вычислениях CRC использовались нулевые сэмплы : Да
Интерфейс : Встроенный Win32-интерфейс для Win NT/2000

Выходной формат : Пользовательский кодировщик
Выбранный битрейт : 1024 kBit/s
Качество : Высокий
Добавление ID3-тэга : Нет
Утилита сжатия : C:\Program Files\Exact Audio Copy\FLAC\FLAC.EXE
Дополнительные параметры : -6 -V -T "ARTIST=%a" -T "TITLE=%t" -T "ALBUM=%g" -T "DATE=%y" -T "TRACKNUMBER=%n" -T "GENRE=%m" -T "COMMENT=%e" %s -o %d


TOC извлечённого CD

Трек | Старт | Длительность | Начальный сектор | Конечный сектор
---------------------------------------------------------------------
1 | 0:00.00 | 3:37.70 | 0 | 16344
2 | 3:37.70 | 4:16.12 | 16345 | 35556
3 | 7:54.07 | 5:35.33 | 35557 | 60714
4 | 13:29.40 | 3:55.45 | 60715 | 78384
5 | 17:25.10 | 4:31.37 | 78385 | 98746
6 | 21:56.47 | 3:35.65 | 98747 | 114936
7 | 25:32.37 | 4:20.05 | 114937 | 134441
8 | 29:52.42 | 4:19.08 | 134442 | 153874
9 | 34:11.50 | 4:55.20 | 153875 | 176019
10 | 39:06.70 | 2:55.32 | 176020 | 189176
11 | 42:02.27 | 3:45.03 | 189177 | 206054


Характеристики диапазона извлечения и сообщения об ошибках

Выбранный диапазон

Имя файла C:\Users\эксперт\Music\Betrayal - The Passing.wav

Пиковый уровень 97.2 %
Качество диапазона 100.0 %
CRC копии 73595043
Копирование... OK

Ошибок не произошло


AccurateRip: сводка

Трек 1 нет в базе данных
Трек 2 нет в базе данных
Трек 3 нет в базе данных
Трек 4 нет в базе данных
Трек 5 нет в базе данных
Трек 6 нет в базе данных
Трек 7 нет в базе данных
Трек 8 нет в базе данных
Трек 9 нет в базе данных
Трек 10 нет в базе данных
Трек 11 нет в базе данных

Ни одного трека нет в базе AccurateRip

Конец отчёта


The Passing


Top
 Profile  
 
 
PostPosted: 25 Aug 2014 
Генеральный thrasher
User avatar
Joined: 03 Oct 2008
Posts: 3534
Lоcаtion: Ханты-Мансийский АО
Age: 43
Name: Сергей
Может кому-нибудь нужен ентот :lloo: Дебютник "Renaissance By Death" есть на рутрэкере (MMT-шный рип),но если надо могу свой запостить в бухту.


Top
 Profile  
 
 
PostPosted: 25 Aug 2014 
\m/ 80 см сала \m/
User avatar
Joined: 12 Mar 2012
Posts: 2589
Age: 25
Name: Nick
:thanx:

_________________
1990 AUROPHON BRAINSTORM (Germany) - lossless
1994 MAUSOLEUM CLASSIX (Belgium-Germany) - lossless
1998 VA - GRIM HARVEST - Complete Metal Massacre Volumes I-XII


Top
 Profile  
 
 
PostPosted: 25 Aug 2014 
Работнечег
User avatar
Joined: 28 Aug 2007
Posts: 5598
Lоcаtion: г. Москва
Age: 29
Name: Дима
Хороший альбом, у меня тоже на сиди есть :true: а вот первый так пока и не слушал :(


Top
 Profile E-mail  
 
 
PostPosted: 25 Aug 2014 
Прокъмитолист
User avatar
Joined: 12 Aug 2007
Posts: 6512
Lоcаtion: Санктъ-Петербуркъ
Age: 51
Name: Олекъ
утащу. спасибо, Серёг! :true:

что касается первого альбома, то такой, как на рутрекере, я у себя нашел. а вот на ММТ - нифига не нашел :umnik:

_________________
прокъметол - это музыко, от которово есть прок (ы)


Top
 Profile  
 
 
PostPosted: 25 Aug 2014 
Генеральный thrasher
User avatar
Joined: 03 Oct 2008
Posts: 3534
Lоcаtion: Ханты-Мансийский АО
Age: 43
Name: Сергей
Олег,на трэкере выражается благодарность за первый альбом jirkasirka с MMT...


Top
 Profile  
 
 
PostPosted: 25 Aug 2014 
Прокъмитолист
User avatar
Joined: 12 Aug 2007
Posts: 6512
Lоcаtion: Санктъ-Петербуркъ
Age: 51
Name: Олекъ
ага, я прочитал. то-то и странно... почему же на ММТ этого альбома нет? ну да ладно.
а тебе, Серёг, спасибо еще раз за то, что находишь и выкладываешь такие редкие штуки :drink:

_________________
прокъметол - это музыко, от которово есть прок (ы)


Top
 Profile  
 
 
PostPosted: 21 Mar 2017 
Персональный статус
User avatar
Joined: 04 Mar 2012
Posts: 237
Lоcаtion: Саратов
Name: Василий
:thanx:


Top
 Profile E-mail  
 
 
PostPosted: 21 Mar 2017 
Хиппей (support team)
User avatar
Joined: 30 Jul 2007
Posts: 108811
Lоcаtion: Киев (Kyiv, UA)
Age: 45
Name: Andrey
thorbeorn wrote:
The Passing

:thanx:

mirror: Depos l Narod l M-Cloud

_________________


Top
 Profile E-mail  
 
 
PostPosted: 21 Mar 2017 
Хиппей (support team)
User avatar
Joined: 30 Jul 2007
Posts: 108811
Lоcаtion: Киев (Kyiv, UA)
Age: 45
Name: Andrey
Betrayal - 1991 - Renaissance By Death [flac]

Image
Image

mirror: Depos l Narod l M-Cloud

log
Exact Audio Copy V0.99 prebeta 5 from 4. May 2009

EAC extraction logfile from 22. September 2010, 9:25

BETRAYAL / Renaissance By Death

Used drive : ASUS DRW-2014L1 Adapter: 0 ID: 0

Read mode : Secure
Utilize accurate stream : Yes
Defeat audio cache : Yes
Make use of C2 pointers : No

Read offset correction : 6
Overread into Lead-In and Lead-Out : No
Fill up missing offset samples with silence : Yes
Delete leading and trailing silent blocks : No
Null samples used in CRC calculations : Yes
Used interface : Native Win32 interface for Win NT & 2000

Used output format : User Defined Encoder
Selected bitrate : 32 kBit/s
Quality : High
Add ID3 tag : No
Command line compressor : C:\Program Files\Exact Audio Copy\flac.exe
Additional command line options : -8 -V %s


TOC of the extracted CD

Track | Start | Length | Start sector | End sector
---------------------------------------------------------
1 | 0:00.37 | 1:40.30 | 37 | 7566
2 | 1:40.67 | 4:26.60 | 7567 | 27576
3 | 6:07.52 | 3:49.10 | 27577 | 44761
4 | 9:56.62 | 3:43.15 | 44762 | 61501
5 | 13:40.02 | 9:03.48 | 61502 | 102274
6 | 22:43.50 | 4:54.15 | 102275 | 124339
7 | 27:37.65 | 6:10.50 | 124340 | 152139
8 | 33:48.40 | 6:43.45 | 152140 | 182409
9 | 40:32.10 | 4:06.32 | 182410 | 200891
10 | 44:38.42 | 5:15.03 | 200892 | 224519


Range status and errors

Selected range

Filename E:\WORK\24.09.10\BETRAYAL 1991 Renaissance By Death\BETRAYAL - Renaissance By Death.wav

Peak level 94.0 %
Range quality 99.9 %
Copy CRC 383F7766
Copy OK

No errors occurred


AccurateRip summary

Track 1 accurately ripped (confidence 5) [CDCD3E49]
Track 2 accurately ripped (confidence 5) [4FE70425]
Track 3 accurately ripped (confidence 5) [DE484B47]
Track 4 accurately ripped (confidence 5) [40241222]
Track 5 accurately ripped (confidence 5) [85ABD065]
Track 6 accurately ripped (confidence 5) [61172D8B]
Track 7 accurately ripped (confidence 5) [1D536716]
Track 8 accurately ripped (confidence 5) [EBC59A31]
Track 9 accurately ripped (confidence 5) [D1F16875]
Track 10 accurately ripped (confidence 5) [4A7CBCDC]

All tracks accurately ripped

End of status report

cue
REM GENRE "Heavy Metal"
REM DATE 1991
REM DISCID 7F0BB10A
REM COMMENT "ExactAudioCopy v0.99pb5"
PERFORMER "BETRAYAL"
TITLE "Renaissance By Death"
FILE "BETRAYAL - Renaissance By Death.wav" WAVE
TRACK 01 AUDIO
TITLE "Renaissance By Death"
PERFORMER "BETRAYAL"
INDEX 00 00:00:00
INDEX 01 00:00:37
TRACK 02 AUDIO
TITLE "The Invitation"
PERFORMER "BETRAYAL"
INDEX 01 01:40:67
TRACK 03 AUDIO
TITLE "Fallen Decieved"
PERFORMER "BETRAYAL"
INDEX 00 01:40:67
INDEX 01 06:07:52
TRACK 04 AUDIO
TITLE "More Faith Than Me"
PERFORMER "BETRAYAL"
INDEX 00 01:40:67
INDEX 01 09:56:62
TRACK 05 AUDIO
TITLE "Escaping The Alter"
PERFORMER "BETRAYAL"
INDEX 00 01:40:67
INDEX 01 13:40:02
TRACK 06 AUDIO
TITLE "Assassins In The Midst"
PERFORMER "BETRAYAL"
INDEX 00 01:40:67
INDEX 01 22:43:50
TRACK 07 AUDIO
TITLE "Mortal Flesh"
PERFORMER "BETRAYAL"
INDEX 00 01:40:67
INDEX 01 27:37:65
TRACK 08 AUDIO
TITLE "Stroll Thru A Wicked Age"
PERFORMER "BETRAYAL"
INDEX 00 01:40:67
INDEX 01 33:48:40
TRACK 09 AUDIO
TITLE "Prophets Of Baal"
PERFORMER "BETRAYAL"
INDEX 00 01:40:67
INDEX 01 40:32:10
TRACK 10 AUDIO
TITLE "Plead The Blood"
PERFORMER "BETRAYAL"
INDEX 00 01:40:67
INDEX 01 44:38:42

_________________


Top
 Profile E-mail  
 
 
PostPosted: 22 Mar 2017 
Хиппей (support team)
User avatar
Joined: 30 Jul 2007
Posts: 108811
Lоcаtion: Киев (Kyiv, UA)
Age: 45
Name: Andrey
Scatterbrain wrote:
Betrayal - 1991 - Renaissance By Death

7/10

После длительных размышлений всё же заберу в личные топы этот релиз.
Ибо нетривиально, свежо, как на то время и раздолбайски полезно.
Да, музыка из себя представляет помесь хардкора, прога и трэша и даже неоклассики и поначалу вызывает в голове некий сумбур и голод по кислороду, но..
Затем ты этот альбом или выбрасываешь подальше, или заносишь в культовые.
Я же выбрал некую серединку и просто забрал в копилку странностей приятных =)

Музыка далека от хитов, но в каждой композиции есть момент, кусочек, риффчег, от которого смело можно получить удовольствие наподобие эякуляционного оргазма. Как виртуального, так и реального, взаправдешнего.

_________________


Top
 Profile E-mail  
 
 
PostPosted: 22 Mar 2017 
Хиппей (support team)
User avatar
Joined: 30 Jul 2007
Posts: 108811
Lоcаtion: Киев (Kyiv, UA)
Age: 45
Name: Andrey
thorbeorn wrote:
The Passing

Группа усложнила и утяжелила чуть звучание, прилепив индастриэл и грувастость некую и... вроде всё так же нравится, но уже грузит, грузит, грузит :sp:
Или это я упарился. на улице + 18 :dance: и хочется лёгкого кого-то.

6+/10

Как-то так...

_________________


Top
 Profile E-mail  
 
Display posts from previous:  Sort by  
Post new topic Reply to topic  [ 12 posts ] 

All times are UTC + 3 hours


Who is online

Users browsing this forum: No registered users and 3 guests


You cannot post new topics in this forum
You cannot reply to topics in this forum
You cannot edit your posts in this forum
You cannot delete your posts in this forum
You cannot post attachments in this forum

Search for:
Яндекс.Метрика
Powered by phpBB © 2000, 2002, 2005, 2007 phpBB Group