\m/ 80's metal \m/

Информационно-аналитический форум "80 см пыли" (In Search We Trust) "У нас никто никуда не спешит"
Me For You - http://me-4u.com
It is currently 18 Oct 2018

All times are UTC + 3 hours

Spoiler
Chat - temporary registration for foreign users (please leave your application here)







Post new topic Reply to topic  [ 29 posts ]  Go to page 1, 2  Next
Author Message
 
PostPosted: 25 Feb 2014 
Partisanen - nicht kapitulieren!!
User avatar
Joined: 25 Dec 2011
Posts: 6753
Warnings: 1
Lоcаtion: партизанские леса
Age: 46
Name: Владимир
BattleAxe [UK] - Heavy Metal/NWOBHM
http://www.metal-archives.com/bands/Battleaxe/5120

выросло из моего поиска... раз уж появился лось - то почему бы бы не собрать имеющееся в одном месте?

Battleaxe 1983 - Burn This Town
Image
картинка, правда от другого издания... в архиве - правильные :oops:

Label : Music For Nations
Tracks : 10
Playtime : 00:39:02
Size : 299.3 MB
Codec : FLAC (image+cue+log)
Scans : имеются

Tracklist :
01. Ready To Deliver (03:14)
02. Her Mama Told Her (03:57)
03. Burn This Town (03:45)
04. Dirty Rocker (03:37)
05. Overdrive (04:43)
06. Running Out Of Time (03:41)
07. Battleaxe (03:55)
08. Star Maker (03:07)
09. Thor-Thunder Angel (04:05)
10. Hands Off (04:55)
EAC log
Code:
Exact Audio Copy V0.99 prebeta 5 from 4. May 2009

Отчёт EAC об извлечении, выполненном 13. августа 2010, 20:16

Battleaxe / Burn This Town

Дисковод: _NEC    DV-5800E   Adapter: 4  ID: 1

Режим чтения                 : Достоверность
Использование точного потока : Да
Отключение кэша аудио        : Да
Использование указателей C2  : Нет

Коррекция смещения при чтении                     : 6
Способность читать области Lead-in и Lead-out     : Нет
Заполнение пропущенных сэмплов тишиной            : Да
Удаление блоков с тишиной в начале и конце        : Нет
При вычислениях CRC использовались нулевые сэмплы : Да
Интерфейс                                         : Установленный внешний ASPI-интерфейс

Выходной формат          : Пользовательский кодировщик
Выбранный битрейт        : 896 kBit/s
Качество                 : Высокий
Добавление ID3-тэга      : Нет
Утилита сжатия           : C:\Program Files\Exact Audio Copy\FLAC\FLAC.EXE
Дополнительные параметры : -6 -V -T "ARTIST=%a" -T "TITLE=%t" -T "ALBUM=%g" -T "DATE=%y" -T "TRACKNUMBER=%n" -T "GENRE=%m" -T "COMMENT=%e" %s -o %d


TOC извлечённого CD

     Трек |   Старт  | Длительность | Начальный сектор | Конечный сектор
    ---------------------------------------------------------------------
       1  |  0:00.00 |    3:14.00   |           0      |      14549     
       2  |  3:14.00 |    3:57.35   |       14550      |      32359     
       3  |  7:11.35 |    3:45.30   |       32360      |      49264     
       4  | 10:56.65 |    3:37.00   |       49265      |      65539     
       5  | 14:33.65 |    4:43.45   |       65540      |      86809     
       6  | 19:17.35 |    3:41.05   |       86810      |     103389     
       7  | 22:58.40 |    3:55.70   |      103390      |     121084     
       8  | 26:54.35 |    3:07.15   |      121085      |     135124     
       9  | 30:01.50 |    4:05.55   |      135125      |     153554     
      10  | 34:07.30 |    4:54.70   |      153555      |     175674     


Характеристики диапазона извлечения и сообщения об ошибках

Выбранный диапазон

     Имя файла C:\Users\Владимир\Documents\Battleaxe - Burn This Town.wav

     Пиковый уровень 92.3 %
     Качество диапазона 100.0 %
     CRC копии 23C0A357
     Копирование... OK

Ошибок не произошло


AccurateRip: сводка

Трек  1  нет в базе данных
Трек  2  нет в базе данных
Трек  3  нет в базе данных
Трек  4  нет в базе данных
Трек  5  нет в базе данных
Трек  6  нет в базе данных
Трек  7  нет в базе данных
Трек  8  нет в базе данных
Трек  9  нет в базе данных
Трек 10  нет в базе данных

Ни одного трека нет в базе AccurateRip

Конец отчёта

mail.ru : rusfolder

_________________
One more beer and Heavy Metal and I'm just fine!
старовер, куле... слово "блин" - до сих пор через Ъ говорю


Last edited by 32warlord1 on 25 Feb 2014, edited 3 times in total.

Top
 Profile E-mail  
 
 
PostPosted: 25 Feb 2014 
Partisanen - nicht kapitulieren!!
User avatar
Joined: 25 Dec 2011
Posts: 6753
Warnings: 1
Lоcаtion: партизанские леса
Age: 46
Name: Владимир
Battleaxe 1984 - Power From The Universe
Image

Label : Music For Nations
Tracks : 8
Playtime : 00:37:59
Size : 288.5 MB
Codec : FLAC (image+cue+log)
Scans : имеются

Tracklist :
01. Chopper Attack (04:16)
02. Movin' Metal Rock (04:12)
03. License To Rock (04:25)
04. Fortune Lady (06:47)
05. Shout It Out (04:07)
06. Over The Top (05:04)
07. Power From The Universe (03:56)
08. Make It In America (05:09)
EAC log
Code:
Exact Audio Copy V0.99 prebeta 5 from 4. May 2009

Отчёт EAC об извлечении, выполненном 13. августа 2010, 20:05

Battleaxe / Power From The Universe

Дисковод: _NEC    DV-5800E   Adapter: 4  ID: 1

Режим чтения                 : Достоверность
Использование точного потока : Да
Отключение кэша аудио        : Да
Использование указателей C2  : Нет

Коррекция смещения при чтении                     : 6
Способность читать области Lead-in и Lead-out     : Нет
Заполнение пропущенных сэмплов тишиной            : Да
Удаление блоков с тишиной в начале и конце        : Нет
При вычислениях CRC использовались нулевые сэмплы : Да
Интерфейс                                         : Установленный внешний ASPI-интерфейс

Выходной формат          : Пользовательский кодировщик
Выбранный битрейт        : 896 kBit/s
Качество                 : Высокий
Добавление ID3-тэга      : Нет
Утилита сжатия           : C:\Program Files\Exact Audio Copy\FLAC\FLAC.EXE
Дополнительные параметры : -6 -V -T "ARTIST=%a" -T "TITLE=%t" -T "ALBUM=%g" -T "DATE=%y" -T "TRACKNUMBER=%n" -T "GENRE=%m" -T "COMMENT=%e" %s -o %d


TOC извлечённого CD

     Трек |   Старт  | Длительность | Начальный сектор | Конечный сектор
    ---------------------------------------------------------------------
       1  |  0:00.00 |    4:16.70   |           0      |      19269     
       2  |  4:16.70 |    4:12.15   |       19270      |      38184     
       3  |  8:29.10 |    4:25.00   |       38185      |      58059     
       4  | 12:54.10 |    6:47.65   |       58060      |      88649     
       5  | 19:42.00 |    4:07.45   |       88650      |     107219     
       6  | 23:49.45 |    5:04.15   |      107220      |     130034     
       7  | 28:53.60 |    3:56.10   |      130035      |     147744     
       8  | 32:49.70 |    5:08.70   |      147745      |     170914     


Характеристики диапазона извлечения и сообщения об ошибках

Выбранный диапазон

     Имя файла C:\Users\Владимир\Documents\Battleaxe - Power From The Universe.wav

     Пиковый уровень 94.6 %
     Качество диапазона 100.0 %
     CRC копии 605D429C
     Копирование... OK

Ошибок не произошло


AccurateRip: сводка

Трек  1  нет в базе данных
Трек  2  нет в базе данных
Трек  3  нет в базе данных
Трек  4  нет в базе данных
Трек  5  нет в базе данных
Трек  6  нет в базе данных
Трек  7  нет в базе данных
Трек  8  нет в базе данных

Ни одного трека нет в базе AccurateRip

Конец отчёта

mail.ru : rusfolder

_________________
One more beer and Heavy Metal and I'm just fine!
старовер, куле... слово "блин" - до сих пор через Ъ говорю


Top
 Profile E-mail  
 
 
PostPosted: 25 Feb 2014 
Partisanen - nicht kapitulieren!!
User avatar
Joined: 25 Dec 2011
Posts: 6753
Warnings: 1
Lоcаtion: партизанские леса
Age: 46
Name: Владимир
Battleaxe 2005 - Nightmare Zone [EP] (recorded 1987)
Image

Label : Sound King Entertains
Tracks : 4
Playtime : 00:14:35
Size : 126 MB
Codec : FLAC (image+cue+log)
Scans : имеются

Tracklist :
01. Killer Woman (02:59)
02. Radio Thunder (03:36)
03. Love's On Fire (03:24)
04. Out In The Night (Live) (04:35)
EAC log
Code:
EAC extraction logfile from 16. December 2007, 19:02 for CD
Battleaxe / Nightmare Zone

Used drive  : PLEXTOR DVDR   PX-716A   Adapter: 3  ID: 0
Read mode   : Secure with NO C2, accurate stream, disable cache
Read offset correction : 30
Overread into Lead-In and Lead-Out : Yes

Used output format : C:\Program Files\Audio\Exact Audio Copy\Flac\flac.exe   (User Defined Encoder)
                     32 kBit/s
                     Additional command line options : -6 -V -T "artist=%a" -T "title=%t" -T "album=%g" -T "date=%y" -T "tracknumber=%n" -T "genre=%m" -T "comment=EAC 0.94b4 / FLAC 1.2.0 q6" %s

Other options      :
    Fill up missing offset samples with silence : Yes
    Delete leading and trailing silent blocks : No
    Installed external ASPI interface


Range status and errors
Selected range
     Filename F:\CDImage\Battleaxe_EP\CDImage.wav

     Peak level 97.7 %
     Range quality 99.9 %
     CRC 1916714B
     Copy OK

No errors occured

End of status report


mail.ru : rusfolder

_________________
One more beer and Heavy Metal and I'm just fine!
старовер, куле... слово "блин" - до сих пор через Ъ говорю


Top
 Profile E-mail  
 
 
PostPosted: 25 Feb 2014 
Хиппей (support team)
User avatar
Joined: 30 Jul 2007
Posts: 106973
Lоcаtion: Киев (Kyiv, UA)
Age: 45
Name: Andrey
:thanx:

_________________


Top
 Profile E-mail  
 
 
PostPosted: 25 Feb 2014 
Почётный металлург
User avatar
Joined: 15 Sep 2007
Posts: 4357
Lоcаtion: Хабаровск
Age: 58
Name: чуть выше
Благодарюс! Классно. Сравню с виниловым рипом.

_________________
Коль будешь людей ты ослами честить,
тебе человеком меж них не прослыть!
(Саади, персидский поэт, 13в.)


Top
 Profile  
 
 
PostPosted: 26 Feb 2014 
Alive Again
User avatar
Joined: 17 Dec 2008
Posts: 4704
Lоcаtion: Курск Воронеж Оскол
Age: 44
Name: Дмитрий
:thanx:


Top
 Profile E-mail  
 
 
PostPosted: 26 Feb 2014 
А может смените мне статус?..
User avatar
Joined: 24 Dec 2008
Posts: 618
Age: 44
Name: Дмитрий
:dance:


Top
 Profile  
 
 
PostPosted: 28 Feb 2014 
Труъ
User avatar
Joined: 14 Jul 2009
Posts: 158
Lоcаtion: Hell Is Here
Age: 48
Name: Adriano
:thanx: :true:


Top
 Profile E-mail  
 
 
PostPosted: 28 Feb 2014 
Partisanen - nicht kapitulieren!!
User avatar
Joined: 25 Dec 2011
Posts: 6753
Warnings: 1
Lоcаtion: партизанские леса
Age: 46
Name: Владимир
для комплекту - крайний...

Battleaxe 2014 - Heavy Metal Sanctuary
Image

Label : Steamhammer
Tracks : 12
Playtime : 00:47:02
Size : 380.9 MB
Codec : FLAC (image+cue+log+scans)

Tracklist :
01. Heavy Metal Sanctuary (03:55)
02. Shock And Awe (03:46)
03. Hail To The King (04:36)
04. Rebel With A Cause (03:15)
05. Give It More (03:50)
06. Too Hot For Hell (03:35)
07. Revolution (04:03)
08. A Prelude To Battle/The Legions Unite (05:29)
09. Spirits Of The Fallen (03:06)
10. Devil Calls (03:54)
11. Kingdom Come (04:42)
12. Romeo (02:45)
EAC log
Code:
Exact Audio Copy V1.0 beta 3 from 29. August 2011

EAC extraction logfile from 28. February 2014, 3:26

Battleaxe / Heavy Metal Sanctuary

Used drive  : ATAPI   iHAS122   W   Adapter: 2  ID: 0

Read mode               : Secure
Utilize accurate stream : Yes
Defeat audio cache      : Yes
Make use of C2 pointers : No

Read offset correction                      : 48
Overread into Lead-In and Lead-Out          : No
Fill up missing offset samples with silence : Yes
Delete leading and trailing silent blocks   : No
Null samples used in CRC calculations       : Yes
Used interface                              : Installed external ASPI interface

Used output format              : User Defined Encoder
Selected bitrate                : 1024 kBit/s
Quality                         : High
Add ID3 tag                     : No
Command line compressor         : C:\Program Files\FLAC\flac.exe
Additional command line options : -V -8 -T "Date=%year%" -T "Genre=%genre%" -T"COMMENT=Ripped by  Ilijan" -8 -V %source%


TOC of the extracted CD

     Track |   Start  |  Length  | Start sector | End sector
    ---------------------------------------------------------
        1  |  0:00.00 |  3:56.01 |         0    |    17700   
        2  |  3:56.01 |  3:47.69 |     17701    |    34794   
        3  |  7:43.70 |  4:38.36 |     34795    |    55680   
        4  | 12:22.31 |  3:14.54 |     55681    |    70284   
        5  | 15:37.10 |  3:51.13 |     70285    |    87622   
        6  | 19:28.23 |  3:37.03 |     87623    |   103900   
        7  | 23:05.26 |  4:04.28 |    103901    |   122228   
        8  | 27:09.54 |  5:30.14 |    122229    |   146992   
        9  | 32:39.68 |  3:06.65 |    146993    |   161007   
       10  | 35:46.58 |  3:56.71 |    161008    |   178778   
       11  | 39:43.54 |  4:43.11 |    178779    |   200014   
       12  | 44:26.65 |  2:45.30 |    200015    |   212419   


Range status and errors

Selected range

     Filename D:\Ilijan\Battleaxe - Heavy Metal Sanctuary.wav

     Peak level 99.2 %
     Extraction speed 3.7 X
     Range quality 99.9 %
     Test CRC 03E159FC
     Copy CRC 03E159FC
     Copy OK

No errors occurred


AccurateRip summary

Track  1  not present in database
Track  2  not present in database
Track  3  not present in database
Track  4  not present in database
Track  5  not present in database
Track  6  not present in database
Track  7  not present in database
Track  8  not present in database
Track  9  not present in database
Track 10  not present in database
Track 11  not present in database
Track 12  not present in database

None of the tracks are present in the AccurateRip database

End of status report

---- CUETools DB Plugin V2.1.3

[CTDB TOCID: ThGrjBUMUkqF3qCkmyXkPd9JKdU-] disk not present in database, Submit result: ThGrjBUMUkqF3qCkmyXkPd9JKdU- has been uploaded


==== Log checksum 6B356C50110B42C61574FCBED5490FD21A75984276E1DA26F0527EBC0E3F6F41 ====


mail.ru : rusfolder

_________________
One more beer and Heavy Metal and I'm just fine!
старовер, куле... слово "блин" - до сих пор через Ъ говорю


Top
 Profile E-mail  
 
 
PostPosted: 28 Feb 2014 
Partisanen - nicht kapitulieren!!
User avatar
Joined: 25 Dec 2011
Posts: 6753
Warnings: 1
Lоcаtion: партизанские леса
Age: 46
Name: Владимир
phpBB [youtube]

:true:

_________________
One more beer and Heavy Metal and I'm just fine!
старовер, куле... слово "блин" - до сих пор через Ъ говорю


Top
 Profile E-mail  
 
 
PostPosted: 22 Dec 2014 
Труъ
User avatar
Joined: 28 Mar 2013
Posts: 152
Lоcаtion: Parana-Brazil
Age: 53
Name: Pedro Gabriel Lanza
Great and amazing post man! Thank very much by this too friend.


Top
 Profile E-mail  
 
 
PostPosted: 22 Dec 2014 
Хиппей (support team)
User avatar
Joined: 30 Jul 2007
Posts: 106973
Lоcаtion: Киев (Kyiv, UA)
Age: 45
Name: Andrey
32warlord1 wrote:
Battleaxe 2014 - Heavy Metal Sanctuary

:thanx:

mirror: Narod l

_________________


Top
 Profile E-mail  
 
 
PostPosted: 22 Dec 2014 
Доктор энтомологии
User avatar
Joined: 22 Jan 2009
Posts: 9381
Lоcаtion: Даугавпилс
Age: 43
Name: Алексей
А ничего так группко. :thanx: завтра пошарюся в даркворлде каком с мпэтришками да слухану на работке :meloman:


Top
 Profile  
 
 
PostPosted: 22 Dec 2014 
Partisanen - nicht kapitulieren!!
User avatar
Joined: 25 Dec 2011
Posts: 6753
Warnings: 1
Lоcаtion: партизанские леса
Age: 46
Name: Владимир
А ничего так группко. :thanx: завтра пошарюся в даркворлде каком с мпэтришками да слухану на работке :meloman:

Дык вот жэж - viewtopic.php?f=106&t=12158

_________________
One more beer and Heavy Metal and I'm just fine!
старовер, куле... слово "блин" - до сих пор через Ъ говорю


Top
 Profile E-mail  
 
 
PostPosted: 22 Dec 2014 
Доктор энтомологии
User avatar
Joined: 22 Jan 2009
Posts: 9381
Lоcаtion: Даугавпилс
Age: 43
Name: Алексей
:thanx:


Top
 Profile  
 
 
PostPosted: 22 Dec 2014 
\m/ 80 см сала \m/
User avatar
Joined: 12 Mar 2012
Posts: 2589
Age: 25
Name: Nick
:thanx:

_________________
1990 AUROPHON BRAINSTORM (Germany) - lossless
1994 MAUSOLEUM CLASSIX (Belgium-Germany) - lossless
1998 VA - GRIM HARVEST - Complete Metal Massacre Volumes I-XII


Top
 Profile  
 
 
PostPosted: 22 Dec 2014 
Доктор энтомологии
User avatar
Joined: 22 Jan 2009
Posts: 9381
Lоcаtion: Даугавпилс
Age: 43
Name: Алексей
Первые два больше всего понравились, хоть ничего особо в них и нету. Последний за 14й - тож хорошо пошел, не заскучал при прослушке, как это с последним Варрантом вышло. Минька проскользнула быстро, даж не заметил и не понял :vic:


Top
 Profile  
 
 
PostPosted: 23 Dec 2014 
Хиппей (support team)
User avatar
Joined: 30 Jul 2007
Posts: 106973
Lоcаtion: Киев (Kyiv, UA)
Age: 45
Name: Andrey
АААааааааааааааааа, жесть, гвозди, пассатижи, 220 вольт в трусы и провокацыйа! :esel: :esel: :esel:
Начал только что слушать новый альбом - сразу офигел. Решил, что спутал папки с альбомами и слушаю новый... Ассётр :nunu: :esel: :esel: :esel:

Эх, слушаю дальше.... :vic:

_________________


Top
 Profile E-mail  
 
 
PostPosted: 23 Dec 2014 
Хиппей (support team)
User avatar
Joined: 30 Jul 2007
Posts: 106973
Lоcаtion: Киев (Kyiv, UA)
Age: 45
Name: Andrey
Мдя, этот альбом, это нечто "ну очень оригинальное" :nunu:
Знатная группа, легендарная даже, можно сказать, не убоясь этого слова, на данный момент... копирует две другие легенды - германскую (Ассерт) и британскую - Жудас Прист.
Да, - срамота до ржаки. Да, стыдоба и вопиющее безобразие. Но альбом активненький такой. Но... Это ж пи :zenz: ец :nofuck:
По ходу, в конце года нас решили завалить шлаком от старых и ранее трушных команд :pechkin: :pig: :sp:

_________________


Top
 Profile E-mail  
 
 
PostPosted: 23 Dec 2014 
Я набрал 1000 сообщений!
Joined: 21 Nov 2009
Posts: 1396
Lоcаtion: praga
Age: 48
Name: Сергей
А не плохой действительно альбом 2014.(вот бы "все " группы на Accept были похожи,да ещё на 1986 год!)мысли вслух. ;).Я раньше прямо ненавидел эту группу.


Top
 Profile E-mail  
 
Display posts from previous:  Sort by  
Post new topic Reply to topic  [ 29 posts ]  Go to page 1, 2  Next

All times are UTC + 3 hours


Who is online

Users browsing this forum: No registered users and 2 guests


You cannot post new topics in this forum
You cannot reply to topics in this forum
You cannot edit your posts in this forum
You cannot delete your posts in this forum
You cannot post attachments in this forum

Search for:
Яндекс.Метрика
Powered by phpBB © 2000, 2002, 2005, 2007 phpBB Group