\m/ 80's metal \m/

Информационно-аналитический форум "80 см пыли" (In Search We Trust) "У нас никто никуда не спешит"
Me For You - http://me-4u.com
It is currently 15 Dec 2018

All times are UTC + 3 hours

Spoiler
Chat - temporary registration for foreign users (please leave your application here)







Post new topic Reply to topic  [ 34 posts ]  Go to page 1, 2  Next
Author Message
 
PostPosted: 15 Dec 2013 
А может смените мне статус?..
User avatar
Joined: 06 Sep 2007
Posts: 808
Lоcаtion: СПб
Age: 63
Name: Сергей
[reqs] Brutal Hand (US) - Brutal Hand 2004 от 128

Image

1. March of the Condemned 02:10
2. 1314 06:29
3. The Tenant 04:57
4. Room to Breathe 05:41
5. Never Be Your Fool 05:51
6. The Hour 05:44
7. Brutal Hands 07:12
8. In the Heart of the Young 05:20
9. Red Lightning 05:40
10. To Hell in a Limousine 03:47
11. Battle in the Sky 04:32
12. Focus 06:11


Top
 Profile  
 
 
PostPosted: 15 Dec 2013 
Rara avis
User avatar
Joined: 27 Jan 2009
Posts: 4716
Name: .
Андрей должен помочь http://www.rhapsody.com/artist/brutal-h ... -the-young


Top
 Profile E-mail  
 
 
PostPosted: 15 Dec 2013 
А может смените мне статус?..
User avatar
Joined: 06 Sep 2007
Posts: 808
Lоcаtion: СПб
Age: 63
Name: Сергей
будем надеяться


Top
 Profile  
 
 
PostPosted: 18 Dec 2013 
Хиппей (support team)
User avatar
Joined: 30 Jul 2007
Posts: 108919
Lоcаtion: Киев (Kyiv, UA)
Age: 45
Name: Andrey
Упс...
Сорри, пока не смогу. Нужно создавать учётку новую или чистить комп от кукисов, или еще чего-то. Но я пока сам не очень помню, как решить проблемку с лимитом этим на проигрывание песен :oops:
зы. Тем не менее спасибо Даше за напоминание в личку и вообще =) :thanx:
Quote:
We’re so sorry...
Rhapsody is currently not available in your country.

If you are in a supported country and believe you have received this message in error, please contact our customer support staff so we can help get you started.


Как будет время, разгребу все завалы со старыми вэб-рипами с Рапсодии попробую заняться новыми.
Пока же пометил топик (!)

_________________


Top
 Profile E-mail  
 
 
PostPosted: 18 Dec 2013 
Хиппей (support team)
User avatar
Joined: 30 Jul 2007
Posts: 108919
Lоcаtion: Киев (Kyiv, UA)
Age: 45
Name: Andrey
Два последующих альбома есть... везде есть http://musicmp3spb.org/artist/brutal_hand.html :vic:

_________________


Top
 Profile E-mail  
 
 
PostPosted: 18 Dec 2013 
Хиппей (support team)
User avatar
Joined: 30 Jul 2007
Posts: 108919
Lоcаtion: Киев (Kyiv, UA)
Age: 45
Name: Andrey
Ааа, офигеть:
Quote:
Denver, CO heavy metal band "Brutal Hand" formed in 2000 as a cover band called Minds Eye and in 2003 release their first self-titled release (...)
:crazy:

phpBB [youtube]

_________________


Top
 Profile E-mail  
 
 
PostPosted: 18 Dec 2013 
Хиппей (support team)
User avatar
Joined: 30 Jul 2007
Posts: 108919
Lоcаtion: Киев (Kyiv, UA)
Age: 45
Name: Andrey
Jeka24 wrote:
от 128

Стоп.
На "Рэпсоди" как раз музыка лежит в битрэйте CBR 128 :pardon:

_________________


Top
 Profile E-mail  
 
 
PostPosted: 18 Dec 2013 
Хиппей (support team)
User avatar
Joined: 30 Jul 2007
Posts: 108919
Lоcаtion: Киев (Kyiv, UA)
Age: 45
Name: Andrey
Два последующих альбома есть... везде есть http://musicmp3spb.org/artist/brutal_hand.html :vic:

И даже в лосиках.

_________________


Top
 Profile E-mail  
 
 
PostPosted: 18 Dec 2013 
Работнечег
User avatar
Joined: 28 Aug 2007
Posts: 5606
Lоcаtion: г. Москва
Age: 29
Name: Дима
у страппадо есть в 320, попробую скачать, но это явно займет немало времени


Top
 Profile E-mail  
 
 
PostPosted: 19 Dec 2013 
Хиппей (support team)
User avatar
Joined: 30 Jul 2007
Posts: 108919
Lоcаtion: Киев (Kyiv, UA)
Age: 45
Name: Andrey
Дим... =) http://heavymetalrarities.com/forum/vie ... 15&p=99825

_________________


Top
 Profile E-mail  
 
 
PostPosted: 21 Dec 2013 
Хиппей (support team)
User avatar
Joined: 30 Jul 2007
Posts: 108919
Lоcаtion: Киев (Kyiv, UA)
Age: 45
Name: Andrey
Пусть пока два последующих альбома здесь в лосиках побудут... :oops:
Позже подправлю оформление.

BRUTAL HAND [2006] [CD] Unchain The World [EAC-FLAC] By Psicosis :thanx: [MeTaLMaDNeSS.TeaM].rar

Image Image
Image Image
Image Image

mirror: M-Cloud l Narod

log
Exact Audio Copy V1.0 beta 3 from 29. August 2011

EAC extraction logfile from 24. February 2013, 18:15

Brutal Hand / Unchain The World

Used drive : HL-DT-STDVD-RAM GH22LS30 Adapter: 5 ID: 0

Read mode : Secure
Utilize accurate stream : Yes
Defeat audio cache : Yes
Make use of C2 pointers : No

Read offset correction : 102
Overread into Lead-In and Lead-Out : No
Fill up missing offset samples with silence : Yes
Delete leading and trailing silent blocks : No
Null samples used in CRC calculations : Yes
Used interface : Native Win32 interface for Win NT & 2000

Used output format : User Defined Encoder
Selected bitrate : 128 kBit/s
Quality : High
Add ID3 tag : No
Command line compressor : C:\Program Files (x86)\FLAC\flac.exe
Additional command line options : -6 -V %source%


TOC of the extracted CD

Track | Start | Length | Start sector | End sector
---------------------------------------------------------
1 | 0:00.00 | 2:13.32 | 0 | 10006
2 | 2:13.32 | 5:20.59 | 10007 | 34065
3 | 7:34.16 | 5:22.42 | 34066 | 58257
4 | 12:56.58 | 4:21.62 | 58258 | 77894
5 | 17:18.45 | 4:08.32 | 77895 | 96526
6 | 21:27.02 | 5:51.25 | 96527 | 122876
7 | 27:18.27 | 4:16.02 | 122877 | 142078
8 | 31:34.29 | 4:19.47 | 142079 | 161550
9 | 35:54.01 | 5:56.07 | 161551 | 188257
10 | 41:50.08 | 4:34.61 | 188258 | 208868
11 | 46:24.69 | 7:54.38 | 208869 | 244456


Range status and errors

Selected range

Filename E:\Brutal Hand - Unchain The World.wav

Peak level 100.0 %
Extraction speed 2.8 X
Range quality 100.0 %
Test CRC 9F65CBB0
Copy CRC 9F65CBB0
Copy OK

No errors occurred


AccurateRip summary

Track 1 not present in database
Track 2 not present in database
Track 3 not present in database
Track 4 not present in database
Track 5 not present in database
Track 6 not present in database
Track 7 not present in database
Track 8 not present in database
Track 9 not present in database
Track 10 not present in database
Track 11 not present in database

None of the tracks are present in the AccurateRip database

End of status report

==== Log checksum 87E4F251A975C26A114F9B9A2A709515662E1D8BA9FE6D1A54133846B3C1DB5F ====

cue
REM GENRE "Traditional Heavy/Progressive Metal"
REM DATE 2006
REM DISCID 9B0CBB0B
REM COMMENT "ExactAudioCopy v1.0b3"
PERFORMER "Brutal Hand"
TITLE "Unchain The World"
FILE "Brutal Hand - Unchain The World.flac" WAVE
TRACK 01 AUDIO
TITLE "Crystal Palace"
PERFORMER "Brutal Hand"
INDEX 01 00:00:00
TRACK 02 AUDIO
TITLE "Heart Of Stone"
PERFORMER "Brutal Hand"
INDEX 01 02:13:32
TRACK 03 AUDIO
TITLE "Darkness"
PERFORMER "Brutal Hand"
INDEX 00 07:33:45
INDEX 01 07:34:16
TRACK 04 AUDIO
TITLE "Out Of Time"
PERFORMER "Brutal Hand"
INDEX 00 12:54:58
INDEX 01 12:56:58
TRACK 05 AUDIO
TITLE "Vengeance"
PERFORMER "Brutal Hand"
INDEX 00 17:18:00
INDEX 01 17:18:45
TRACK 06 AUDIO
TITLE "Burning Sea"
PERFORMER "Brutal Hand"
INDEX 00 21:25:02
INDEX 01 21:27:02
TRACK 07 AUDIO
TITLE "Blood Thirst"
PERFORMER "Brutal Hand"
INDEX 00 27:16:27
INDEX 01 27:18:27
TRACK 08 AUDIO
TITLE "Unchain The World"
PERFORMER "Brutal Hand"
INDEX 01 31:34:29
TRACK 09 AUDIO
TITLE "Taste The Fear"
PERFORMER "Brutal Hand"
INDEX 00 35:52:27
INDEX 01 35:54:01
TRACK 10 AUDIO
TITLE "Voices"
PERFORMER "Brutal Hand"
INDEX 00 41:48:08
INDEX 01 41:50:08
TRACK 11 AUDIO
TITLE "Amon Moloch"
PERFORMER "Brutal Hand"
INDEX 01 46:24:69

_________________


Top
 Profile E-mail  
 
 
PostPosted: 21 Dec 2013 
Хиппей (support team)
User avatar
Joined: 30 Jul 2007
Posts: 108919
Lоcаtion: Киев (Kyiv, UA)
Age: 45
Name: Andrey
BRUTAL.HAND.[2009].[CD].Purgatory's.Rage. [EAC-FLAC].BY.Exploded :thanx: [MeTaLMaDNeSS.TeaM].rar

Image

mirror: Narod l M-Cloud

log
Exact Audio Copy V0.99 prebeta 5 from 4. May 2009

EAC extraction logfile from 20. February 2012, 20:34

Brutal Hand / Purgatory's Rage

Used drive : Optiarc DVD RW AD-7240S Adapter: 0 ID: 0

Read mode : Secure
Utilize accurate stream : Yes
Defeat audio cache : Yes
Make use of C2 pointers : No

Read offset correction : 48
Overread into Lead-In and Lead-Out : No
Fill up missing offset samples with silence : Yes
Delete leading and trailing silent blocks : No
Null samples used in CRC calculations : No
Used interface : Native Win32 interface for Win NT & 2000

Used output format : User Defined Encoder
Selected bitrate : 32 kBit/s
Quality : High
Add ID3 tag : No
Command line compressor : C:\FLAC.EXE
Additional command line options : -6 -V %s


TOC of the extracted CD

Track | Start | Length | Start sector | End sector
---------------------------------------------------------
1 | 0:00.00 | 8:50.32 | 0 | 39781
2 | 8:50.32 | 4:47.25 | 39782 | 61331
3 | 13:37.57 | 4:36.20 | 61332 | 82051
4 | 18:14.02 | 4:10.05 | 82052 | 100806
5 | 22:24.07 | 3:25.46 | 100807 | 116227
6 | 25:49.53 | 6:16.49 | 116228 | 144476
7 | 32:06.27 | 4:32.69 | 144477 | 164945
8 | 36:39.21 | 4:13.54 | 164946 | 183974
9 | 40:53.00 | 4:55.58 | 183975 | 206157
10 | 45:48.58 | 6:08.17 | 206158 | 233774


Range status and errors

Selected range

Filename G:\Brutal Hand - Purgatory's Rage.wav

Peak level 100.0 %
Range quality 100.0 %
Copy CRC 96A29931
Copy OK

No errors occurred


AccurateRip summary

Track 1 cannot be verified as accurate (confidence 1) [4C6AED8D], AccurateRip returned [9135F48F]
Track 2 cannot be verified as accurate (confidence 1) [77FED8C1], AccurateRip returned [302F730C]
Track 3 cannot be verified as accurate (confidence 1) [1210956E], AccurateRip returned [B2E1F7F5]
Track 4 cannot be verified as accurate (confidence 1) [059AF122], AccurateRip returned [A822AEDB]
Track 5 cannot be verified as accurate (confidence 1) [DF1852F4], AccurateRip returned [DAF0CDC6]
Track 6 cannot be verified as accurate (confidence 1) [11E88430], AccurateRip returned [42D2A3BF]
Track 7 cannot be verified as accurate (confidence 1) [7C3B4CF9], AccurateRip returned [C3D459D3]
Track 8 cannot be verified as accurate (confidence 1) [0DAA7E6B], AccurateRip returned [9CE590FC]
Track 9 cannot be verified as accurate (confidence 1) [0830FB9A], AccurateRip returned [E4D0430D]
Track 10 cannot be verified as accurate (confidence 1) [11BA1372], AccurateRip returned [BA0AEBC7]

No tracks could be verified as accurate
You may have a different pressing from the one(s) in the database

End of status report

cue
REM GENRE Metal
REM DATE 2009
REM DISCID 7F0C2D0A
REM COMMENT "ExactAudioCopy v0.99pb5"
PERFORMER "Brutal Hand"
TITLE "Purgatory's Rage"
FILE "Brutal Hand - Purgatory's Rage.flac" WAVE
TRACK 01 AUDIO
TITLE "Purgatory"
PERFORMER "Brutal Hand"
FLAGS DCP
INDEX 01 00:00:00
TRACK 02 AUDIO
TITLE "Six"
PERFORMER "Brutal Hand"
FLAGS DCP
INDEX 01 08:50:32
TRACK 03 AUDIO
TITLE "Karma"
PERFORMER "Brutal Hand"
FLAGS DCP
INDEX 00 13:36:20
INDEX 01 13:37:57
TRACK 04 AUDIO
TITLE "Dying Sun"
PERFORMER "Brutal Hand"
FLAGS DCP
INDEX 00 18:12:40
INDEX 01 18:14:02
TRACK 05 AUDIO
TITLE "Stand On It"
PERFORMER "Brutal Hand"
FLAGS DCP
INDEX 01 22:24:07
TRACK 06 AUDIO
TITLE "Sandra"
PERFORMER "Brutal Hand"
FLAGS DCP
INDEX 00 25:47:53
INDEX 01 25:49:53
TRACK 07 AUDIO
TITLE "Blame"
PERFORMER "Brutal Hand"
FLAGS DCP
INDEX 00 32:05:65
INDEX 01 32:06:27
TRACK 08 AUDIO
TITLE "Earth"
PERFORMER "Brutal Hand"
FLAGS DCP
INDEX 01 36:39:21
TRACK 09 AUDIO
TITLE "Fire Son"
PERFORMER "Brutal Hand"
FLAGS DCP
INDEX 01 40:53:00
TRACK 10 AUDIO
TITLE "Metal Rules"
PERFORMER "Brutal Hand"
FLAGS DCP
INDEX 00 45:48:21
INDEX 01 45:48:58

_________________


Top
 Profile E-mail  
 
 
PostPosted: 05 Jan 2014 
А может смените мне статус?..
User avatar
Joined: 06 Sep 2007
Posts: 808
Lоcаtion: СПб
Age: 63
Name: Сергей
http://rutracker.org/forum/viewtopic.php?t=4631155


Top
 Profile  
 
 
PostPosted: 05 Jan 2014 
Хиппей (support team)
User avatar
Joined: 30 Jul 2007
Posts: 108919
Lоcаtion: Киев (Kyiv, UA)
Age: 45
Name: Andrey
Красота какая :dance:

_________________


Top
 Profile E-mail  
 
 
PostPosted: 05 Jan 2014 
Partisanen - nicht kapitulieren!!
User avatar
Joined: 25 Dec 2011
Posts: 6762
Lоcаtion: партизанские леса
Age: 46
Name: Владимир
Ааа, офигеть:
Quote:
Denver, CO heavy metal band "Brutal Hand" formed in 2000 as a cover band called Minds Eye and in 2003 release their first self-titled release (...)
:crazy:

интересно бы послушать, чего они там каверили...

_________________
One more beer and Heavy Metal and I'm just fine!
старовер, куле... слово "блин" - до сих пор через Ъ говорю


Top
 Profile E-mail  
 
 
PostPosted: 05 Jan 2014 
Хиппей (support team)
User avatar
Joined: 30 Jul 2007
Posts: 108919
Lоcаtion: Киев (Kyiv, UA)
Age: 45
Name: Andrey
Да явно Пристов, Мэйденов и прочих :pardon:

_________________


Top
 Profile E-mail  
 
 
PostPosted: 05 Jan 2014 
Хиппей (support team)
User avatar
Joined: 30 Jul 2007
Posts: 108919
Lоcаtion: Киев (Kyiv, UA)
Age: 45
Name: Andrey
Brutal Hand - 2004 - Brutal Hand [flac]

Image

mirror: Narod l M-Cloud

log
Exact Audio Copy V1.0 beta 3 from 29. August 2011

EAC extraction logfile from 3. January 2014, 12:06

Brutal Hand / Brutal Hand

Used drive : HL-DT-STDVDRAM GU40N Adapter: 0 ID: 1

Read mode : Secure
Utilize accurate stream : Yes
Defeat audio cache : Yes
Make use of C2 pointers : No

Read offset correction : 103
Overread into Lead-In and Lead-Out : No
Fill up missing offset samples with silence : Yes
Delete leading and trailing silent blocks : No
Null samples used in CRC calculations : Yes
Used interface : Native Win32 interface for Win NT & 2000

Used output format : User Defined Encoder
Selected bitrate : 128 kBit/s
Quality : High
Add ID3 tag : No
Command line compressor : C:\Program Files (x86)\AudioConverter\AudioConverter.exe
Additional command line options : -V -8 -T "Date=%year%" -T "Genre=%genre%" %source%


TOC of the extracted CD

Track | Start | Length | Start sector | End sector
---------------------------------------------------------
1 | 0:00.00 | 2:10.48 | 0 | 9797
2 | 2:10.48 | 6:23.50 | 9798 | 38572
3 | 8:34.23 | 4:57.18 | 38573 | 60865
4 | 13:31.41 | 5:41.64 | 60866 | 86504
5 | 19:13.30 | 5:51.07 | 86505 | 112836
6 | 25:04.37 | 5:46.17 | 112837 | 138803
7 | 30:50.54 | 7:12.52 | 138804 | 171255
8 | 38:03.31 | 5:20.33 | 171256 | 195288
9 | 43:23.64 | 5:40.66 | 195289 | 220854
10 | 49:04.55 | 3:47.43 | 220855 | 237922
11 | 52:52.23 | 4:32.62 | 237923 | 258384
12 | 57:25.10 | 6:11.66 | 258385 | 286275


Range status and errors

Selected range

Filename C:\Users\workutagin\Desktop\Brutal Hand - Brutal Hand 2004\Brutal Hand - Brutal Hand.wav

Peak level 98.8 %
Extraction speed 2.1 X
Range quality 99.9 %
Test CRC EED43ACF
Copy CRC EED43ACF
Copy OK

No errors occurred


AccurateRip summary

Track 1 accurately ripped (confidence 1) [5105646C] (AR v2)
Track 2 accurately ripped (confidence 1) [5D0AB34A] (AR v2)
Track 3 accurately ripped (confidence 1) [BBA9248E] (AR v2)
Track 4 accurately ripped (confidence 1) [0B0AE0A8] (AR v2)
Track 5 accurately ripped (confidence 1) [F0B638CD] (AR v2)
Track 6 accurately ripped (confidence 1) [E51F941C] (AR v2)
Track 7 accurately ripped (confidence 1) [46B3A657] (AR v2)
Track 8 accurately ripped (confidence 1) [F0CE5214] (AR v2)
Track 9 accurately ripped (confidence 1) [07986FF5] (AR v2)
Track 10 accurately ripped (confidence 1) [789F7DC4] (AR v2)
Track 11 accurately ripped (confidence 1) [D7FD0782] (AR v2)
Track 12 accurately ripped (confidence 1) [F22AFE40] (AR v2)

All tracks accurately ripped

End of status report

==== Log checksum 5DD229D6E2959874A79CEB1E582EE3D4D0903DD120469DD500ABD1F25821FFEF ====

cue
REM GENRE "Heavy Metal"
REM DATE 2004
REM DISCID 9C0EE90C
REM COMMENT "ExactAudioCopy v1.0b3"
PERFORMER "Brutal Hand"
TITLE "Brutal Hand"
FILE "Brutal Hand - Brutal Hand.flac" WAVE
TRACK 01 AUDIO
TITLE "March Of The Condemned "
PERFORMER "Brutal Hand"
INDEX 01 00:00:00
TRACK 02 AUDIO
TITLE "1314 "
PERFORMER "Brutal Hand"
INDEX 01 02:10:48
TRACK 03 AUDIO
TITLE "The Tenent"
PERFORMER "Brutal Hand"
INDEX 00 08:32:23
INDEX 01 08:34:23
TRACK 04 AUDIO
TITLE "Room To Breathe"
PERFORMER "Brutal Hand"
INDEX 00 13:29:41
INDEX 01 13:31:41
TRACK 05 AUDIO
TITLE "Never Be Your Fool"
PERFORMER "Brutal Hand"
INDEX 00 19:11:30
INDEX 01 19:13:30
TRACK 06 AUDIO
TITLE "The Hour"
PERFORMER "Brutal Hand"
INDEX 00 25:02:37
INDEX 01 25:04:37
TRACK 07 AUDIO
TITLE "Brutal Hands"
PERFORMER "Brutal Hand"
INDEX 00 30:48:54
INDEX 01 30:50:54
TRACK 08 AUDIO
TITLE "In The Heart Of The Young"
PERFORMER "Brutal Hand"
INDEX 00 38:01:31
INDEX 01 38:03:31
TRACK 09 AUDIO
TITLE "Red Lightning"
PERFORMER "Brutal Hand"
INDEX 00 43:21:64
INDEX 01 43:23:64
TRACK 10 AUDIO
TITLE "To Hell In A Limousine"
PERFORMER "Brutal Hand"
INDEX 00 49:02:55
INDEX 01 49:04:55
TRACK 11 AUDIO
TITLE "Battle In The Sky"
PERFORMER "Brutal Hand"
INDEX 00 52:50:23
INDEX 01 52:52:23
TRACK 12 AUDIO
TITLE "Focus"
PERFORMER "Brutal Hand"
INDEX 00 57:23:10
INDEX 01 57:25:10

_________________


Top
 Profile E-mail  
 
 
PostPosted: 05 Jan 2014 
Partisanen - nicht kapitulieren!!
User avatar
Joined: 25 Dec 2011
Posts: 6762
Lоcаtion: партизанские леса
Age: 46
Name: Владимир
Тут все три в папке, если что...

_________________
One more beer and Heavy Metal and I'm just fine!
старовер, куле... слово "блин" - до сих пор через Ъ говорю


Top
 Profile E-mail  
 
 
PostPosted: 05 Jan 2014 
Хиппей (support team)
User avatar
Joined: 30 Jul 2007
Posts: 108919
Lоcаtion: Киев (Kyiv, UA)
Age: 45
Name: Andrey
:thanx:

_________________


Top
 Profile E-mail  
 
 
PostPosted: 07 Jan 2014 
Работнечег
User avatar
Joined: 28 Aug 2007
Posts: 5606
Lоcаtion: г. Москва
Age: 29
Name: Дима
:thanx:
Спасибо! первый альбом хорош, вокалист очень понравился! :true:


Top
 Profile E-mail  
 
Display posts from previous:  Sort by  
Post new topic Reply to topic  [ 34 posts ]  Go to page 1, 2  Next

All times are UTC + 3 hours


Who is online

Users browsing this forum: No registered users and 5 guests


You cannot post new topics in this forum
You cannot reply to topics in this forum
You cannot edit your posts in this forum
You cannot delete your posts in this forum
You cannot post attachments in this forum

Search for:
Яндекс.Метрика
Powered by phpBB © 2000, 2002, 2005, 2007 phpBB Group