\m/ 80's metal \m/

Информационно-аналитический форум "80 см пыли" (In Search We Trust) "У нас никто никуда не спешит"
Me For You - http://me-4u.com
It is currently 23 Oct 2018

All times are UTC + 3 hours

Spoiler
Chat - temporary registration for foreign users (please leave your application here)







Post new topic Reply to topic  [ 20 posts ] 
Author Message
 
PostPosted: 26 Mar 2013 
\m/ 80 см сала \m/
User avatar
Joined: 12 Mar 2012
Posts: 2589
Age: 25
Name: Nick
Betrayer - Hostage of Progress (1996)

Image

country: Germany
genre: thrash metal

1. War Child 06:08
2. Dead Man Walking 05:04
3. Death Throes 04:38
4. Act of Revenge 06:51
5. Assumption of Power 05:08
6. Hostage of Progress 04:05
7. Curruption & Violence 07:16
8. Trial Without Care 05:44

Betrayer на metal-archives

_________________
1990 AUROPHON BRAINSTORM (Germany) - lossless
1994 MAUSOLEUM CLASSIX (Belgium-Germany) - lossless
1998 VA - GRIM HARVEST - Complete Metal Massacre Volumes I-XII


Top
 Profile  
 
 
PostPosted: 28 Mar 2013 
А может смените мне статус?..
User avatar
Joined: 28 Jul 2008
Posts: 907
Lоcаtion: Украина---Днепропетровск
Age: 44
Name: Александр
дык ссыли в инете живые есть и находятся сразу!А может качество не подходит?

_________________
Музыка в которой я растворяюсь многих угнетает......


Top
 Profile  
 
 
PostPosted: 28 Mar 2013 
\m/ 80 см сала \m/
User avatar
Joined: 12 Mar 2012
Posts: 2589
Age: 25
Name: Nick
Киньте пару ссылок, я мог и недоглядеть.

_________________
1990 AUROPHON BRAINSTORM (Germany) - lossless
1994 MAUSOLEUM CLASSIX (Belgium-Germany) - lossless
1998 VA - GRIM HARVEST - Complete Metal Massacre Volumes I-XII


Top
 Profile  
 
 
PostPosted: 28 Mar 2013 
А может смените мне статус?..
User avatar
Joined: 28 Jul 2008
Posts: 907
Lоcаtion: Украина---Днепропетровск
Age: 44
Name: Александр
http://narod.ru/disk/28354715001/Btryr-1996-Hstg_o_Prgrss_AHBAnep.rar.html

_________________
Музыка в которой я растворяюсь многих угнетает......


Top
 Profile  
 
 
PostPosted: 28 Mar 2013 
\m/ 80 см сала \m/
User avatar
Joined: 12 Mar 2012
Posts: 2589
Age: 25
Name: Nick
Видимо, лося в природе нет. За ссылку спасибо.

_________________
1990 AUROPHON BRAINSTORM (Germany) - lossless
1994 MAUSOLEUM CLASSIX (Belgium-Germany) - lossless
1998 VA - GRIM HARVEST - Complete Metal Massacre Volumes I-XII


Top
 Profile  
 
 
PostPosted: 30 Mar 2013 
Хиппей (support team)
User avatar
Joined: 30 Jul 2007
Posts: 107127
Lоcаtion: Киев (Kyiv, UA)
Age: 45
Name: Andrey
У Спидика в списке диска точно нет?
А то я щас чота список открыть не могу в Эксель... :fingal:

_________________


Top
 Profile E-mail  
 
 
PostPosted: 24 Apr 2013 
Работнечег
User avatar
Joined: 28 Aug 2007
Posts: 5470
Lоcаtion: г. Москва
Age: 29
Name: Дима
Ожидаем :paid:


Top
 Profile E-mail  
 
 
PostPosted: 24 Apr 2013 
Хиппей (support team)
User avatar
Joined: 30 Jul 2007
Posts: 107127
Lоcаtion: Киев (Kyiv, UA)
Age: 45
Name: Andrey
:TU-144: :boo:

_________________


Top
 Profile E-mail  
 
 
PostPosted: 27 Jul 2013 
Работнечег
User avatar
Joined: 28 Aug 2007
Posts: 5470
Lоcаtion: г. Москва
Age: 29
Name: Дима
Image

Label: Self-released
Genre: Heavy Metal
Country: Germany
Format: Flac + Log + Cue + Covers
Size: 365 Mb

Line-Up:
Carsten Fricke - Bass
Jens Vierow - Drums
Christian Wille - Guitar (ex-Dark at Dawn)
Holger Tilch - Guitar
York Richter - Vocals


Tracklist:
1. War Child 06:08
2. Dead Man Walking 05:04
3. Death Throes 04:38
4. Act of Revenge 06:51
5. Assumption of Power 05:08
6. Hostage of Progress 04:05
7. Curruption & Violence 07:16
8. Trial Without Care 05:44

LOG
Exact Audio Copy V0.99 prebeta 5 from 4. May 2009

EAC extraction logfile from 27. July 2013, 15:12

Betrayer / Hostage Of Progress

Used drive : PIONEER DVD-RW DVR-116D Adapter: 0 ID: 0

Read mode : Secure
Utilize accurate stream : Yes
Defeat audio cache : Yes
Make use of C2 pointers : No

Read offset correction : 96
Overread into Lead-In and Lead-Out : No
Fill up missing offset samples with silence : Yes
Delete leading and trailing silent blocks : No
Null samples used in CRC calculations : Yes
Used interface : Native Win32 interface for Win NT & 2000

Used output format : User Defined Encoder
Selected bitrate : 32 kBit/s
Quality : High
Add ID3 tag : No
Command line compressor : C:\Program Files\Exact Audio Copy\Flac\flac.exe
Additional command line options : -6 -V %s


TOC of the extracted CD

Track | Start | Length | Start sector | End sector
---------------------------------------------------------
1 | 0:00.00 | 6:08.42 | 0 | 27641
2 | 6:08.42 | 5:04.08 | 27642 | 50449
3 | 11:12.50 | 4:38.66 | 50450 | 71365
4 | 15:51.41 | 6:51.69 | 71366 | 102259
5 | 22:43.35 | 5:08.59 | 102260 | 125418
6 | 27:52.19 | 4:05.43 | 125419 | 143836
7 | 31:57.62 | 7:16.10 | 143837 | 176546
8 | 39:13.72 | 5:43.73 | 176547 | 202344


Range status and errors

Selected range

Filename D:\Музыка\Lossless\Betrayer - Hostage Of Progress (1996)\Betrayer - Hostage Of Progress.wav

Peak level 96.6 %
Range quality 100.0 %
Copy CRC FA0A473E
Copy OK

No errors occurred


AccurateRip summary

Track 1 cannot be verified as accurate (confidence 1) [7FE9F564], AccurateRip returned [8269B881]
Track 2 cannot be verified as accurate (confidence 1) [E053D960], AccurateRip returned [B916EA17]
Track 3 cannot be verified as accurate (confidence 1) [FF8163E3], AccurateRip returned [7347E7EE]
Track 4 cannot be verified as accurate (confidence 1) [241B05B5], AccurateRip returned [B579E489]
Track 5 cannot be verified as accurate (confidence 1) [4D7A1AA3], AccurateRip returned [77B78F65]
Track 6 cannot be verified as accurate (confidence 1) [87CB0B74], AccurateRip returned [8F9032E8]
Track 7 cannot be verified as accurate (confidence 1) [F0CA9A84], AccurateRip returned [5A8A5701]
Track 8 cannot be verified as accurate (confidence 1) [192E9DA9], AccurateRip returned [FEEBFDFC]

No tracks could be verified as accurate
You may have a different pressing from the one(s) in the database

End of status report

CUE
REM GENRE "Thrash Metal"
REM DATE 1996
REM DISCID 720A8908
REM COMMENT "ExactAudioCopy v0.99pb5"
PERFORMER "Betrayer"
TITLE "Hostage Of Progress"
FILE "Betrayer - Hostage Of Progress.flac" WAVE
TRACK 01 AUDIO
TITLE "War Child"
PERFORMER "Betrayer"
INDEX 01 00:00:00
TRACK 02 AUDIO
TITLE "Dead Man Walking"
PERFORMER "Betrayer"
INDEX 00 06:05:72
INDEX 01 06:08:42
TRACK 03 AUDIO
TITLE "Death Throes"
PERFORMER "Betrayer"
INDEX 00 11:10:05
INDEX 01 11:12:50
TRACK 04 AUDIO
TITLE "Act Of Revenge"
PERFORMER "Betrayer"
INDEX 00 15:48:71
INDEX 01 15:51:41
TRACK 05 AUDIO
TITLE "Assumption Of Power"
PERFORMER "Betrayer"
INDEX 00 22:40:65
INDEX 01 22:43:35
TRACK 06 AUDIO
TITLE "Hostage Of Progress"
PERFORMER "Betrayer"
INDEX 00 27:49:49
INDEX 01 27:52:19
TRACK 07 AUDIO
TITLE "Corruption & Violence"
PERFORMER "Betrayer"
INDEX 00 31:55:17
INDEX 01 31:57:62
TRACK 08 AUDIO
TITLE "Trial Without Care"
PERFORMER "Betrayer"
INDEX 00 39:11:27
INDEX 01 39:13:72


Rusfolder

Не очень я определился со стилем, обозвал бы это хэви с нотками павера и трэша в некоторых местах, имхо. Материал в основном не очень скоростной, но оставил приятное впечатление.


Top
 Profile E-mail  
 
 
PostPosted: 27 Jul 2013 
Хиппей (support team)
User avatar
Joined: 30 Jul 2007
Posts: 107127
Lоcаtion: Киев (Kyiv, UA)
Age: 45
Name: Andrey
:thanx:

mirror: F-Bit l Narod

_________________


Top
 Profile E-mail  
 
 
PostPosted: 27 Jul 2013 
спирт 100%
User avatar
Joined: 22 Sep 2008
Posts: 4305
Age: 47
Name: Саня
Димон,Спасибо! :true:


Top
 Profile  
 
 
PostPosted: 28 Jul 2013 
Хиппей (support team)
User avatar
Joined: 30 Jul 2007
Posts: 107127
Lоcаtion: Киев (Kyiv, UA)
Age: 45
Name: Andrey
Мдя... Слушаю альбом. Диссонанс какой-то. Или вокалист не понимает музыкантов-инструменталистов, или они его :vic:

Убираю из заголовка темы стиль (thrash metal), ну и позже снова этого лося еще несколько раз внимательно послушаю. Авось понравится.

_________________


Top
 Profile E-mail  
 
 
PostPosted: 28 Jul 2013 
Хиппей (support team)
User avatar
Joined: 30 Jul 2007
Posts: 107127
Lоcаtion: Киев (Kyiv, UA)
Age: 45
Name: Andrey
И все же каша какая-то вязковатая, а не альбом. Единственный вменяемый трэк - "Assumption Of Power" :meloman:

_________________


Top
 Profile E-mail  
 
 
PostPosted: 28 Jul 2013 
ТрэшЭрос
User avatar
Joined: 18 Jul 2011
Posts: 2296
Lоcаtion: Гулькевичи
Age: 43
Name: Александр
Scatterbrain wrote:
каша какая-то

Видимо, хлопцы енти непьющие ваще... Нет той агрессии в исполнении тифтонского митала, лажа лажная. :oops:
Пайду Арию паслушаю штоле, про наш гимарой на асфальте... :true:
А, самое главное забыл - спасибо Диме за знакомство с этим Битреей :thanx:

_________________
Thrash no trash!!!


Top
 Profile E-mail  
 
 
PostPosted: 28 Jul 2013 
\m/ 80 см сала \m/
User avatar
Joined: 12 Mar 2012
Posts: 2589
Age: 25
Name: Nick
Ого, я уже успел забыть, что делал такой запрос :shok:
Дима, пребольшое спасибо за лосичка :thanx:

_________________
1990 AUROPHON BRAINSTORM (Germany) - lossless
1994 MAUSOLEUM CLASSIX (Belgium-Germany) - lossless
1998 VA - GRIM HARVEST - Complete Metal Massacre Volumes I-XII


Top
 Profile  
 
 
PostPosted: 31 Jul 2013 
Power Metal Maniac
User avatar
Joined: 09 Aug 2008
Posts: 6317
Lоcаtion: Москва
Age: 40
Name: Егор
Не слушал альбом, но вообще кто в 96 играл скоростной Thrash??? (( так что обычно всячсеки стараюсь избегать Thrash не 80-х, в крайнем случае новые ретро-группы, но они начали появляться в 2000-х и то в не очень большом количестве.

_________________
Long Live Metal!


Top
 Profile  
 
 
PostPosted: 31 Jul 2013 
Хиппей (support team)
User avatar
Joined: 30 Jul 2007
Posts: 107127
Lоcаtion: Киев (Kyiv, UA)
Age: 45
Name: Andrey
EG Power wrote:
кто в 96 играл скоростной Thrash???

Слауер :smerd:

_________________


Top
 Profile E-mail  
 
 
PostPosted: 31 Jul 2013 
Power Metal Maniac
User avatar
Joined: 09 Aug 2008
Posts: 6317
Lоcаtion: Москва
Age: 40
Name: Егор
Слеер в 1996??? :shok: Поганейший каверный Undisputed Attitude - это хардкор, даже едва ли на кроссвер тянет. Но вовсе не Thrash. У Slayer быстрые вещи вернулись в 2006. Ну одна еще в 2002 была.

_________________
Long Live Metal!


Top
 Profile  
 
 
PostPosted: 02 Aug 2013 
Хиппей (support team)
User avatar
Joined: 30 Jul 2007
Posts: 107127
Lоcаtion: Киев (Kyiv, UA)
Age: 45
Name: Andrey
EG Power wrote:
Поганейший каверный Undisputed Attitude - это хардкор, даже едва ли на кроссвер тянет

Да, именно хардкор в трэшевой обработке :kz:

_________________


Top
 Profile E-mail  
 
 
PostPosted: 18 Aug 2013 
Трешер
User avatar
Joined: 25 Feb 2011
Posts: 1053
Lоcаtion: Харьков
Age: 42
Name: Aleksandr
О спасибо послушаю ! а то даже в мр3 не мог найти . я еще думал брать его или нет ? он тогда баксов за 10 ушел , ну и ладно.


Top
 Profile E-mail  
 
Display posts from previous:  Sort by  
Post new topic Reply to topic  [ 20 posts ] 

All times are UTC + 3 hours


Who is online

Users browsing this forum: No registered users and 1 guest


You cannot post new topics in this forum
You cannot reply to topics in this forum
You cannot edit your posts in this forum
You cannot delete your posts in this forum
You cannot post attachments in this forum

Search for:
Яндекс.Метрика
Powered by phpBB © 2000, 2002, 2005, 2007 phpBB Group