\m/ 80's metal \m/

Информационно-аналитический форум "80 см пыли" (In Search We Trust) "У нас никто никуда не спешит"
Me For You - http://me-4u.com
It is currently 12 Dec 2018

All times are UTC + 3 hours

Spoiler
Chat - temporary registration for foreign users (please leave your application here)







Post new topic Reply to topic  [ 4 posts ] 
Author Message
 
PostPosted: 08 Mar 2013 
Хиппей (support team)
User avatar
Joined: 30 Jul 2007
Posts: 108837
Lоcаtion: Киев (Kyiv, UA)
Age: 45
Name: Andrey
B-Joe - 1992 - Ready To Ride [flac]

ImageImageImageImage

Format: flac + cue + mini covers
Genre: AOR
Location: Denmark
Size: 257 Mb


Line-up:

B. Joe - guitars, vocals
Nils Kroyer - bass
Thomas "Tee Jay" Johansen - keyboards
Jesper Irn - drums
Koffer - guitars

Additional Musicians:
Torben Schmidt, Jan Eliasson, Ann-Luise - backing Vocals
Mike Anderson, Flemming Rasmussen, Miller - percussion

    1. Rock 'N' Roll Junkie - 03:43
    2. Ready To Ride - 03:42
    3. Dirty Sheets - 04:30
    4. Don't Wanna Loose You - 04:37
    5. Forty Days - 04:08
    6. Lies - 03:50
    7. A Brend New Start - 04:39
    8. Alright Now - 00:03:36
    9. All The Nights - 02:53

    TPT: 35:40

Очень долго слушаю этот альбом. Несколько месяцев раза три в недельку примерно...

Возможно поэтому и кажется, что он состоит на 100% из хитов? :vic:

Это очень добротный качественный AOR/Melodic Hard с типичным для этого стиля красивым и чуть хрипловатым вокалом и очень запоминающимися мелодиями для "стадионного пения". :meloman:

9+/10

MultiUp l Narod

Где лосика взял? А вот и не помню, возможно и у нас же =)

Смотрим лог, кому интересно :dance:

зы. Опа, а лога то и нету внутри папки... :fingal: Только куй :pardon:

cue
REM DATE 1993
REM DISCID 6A086A09
REM COMMENT "ExactAudioCopy v0.95b2"
PERFORMER "B - Joe"
TITLE "Ready To Ride"
FILE "B-Joe - Ready To Ride (1992).wav" WAVE
TRACK 01 AUDIO
TITLE "Rock'n'Roll Junkie"
PERFORMER "B - Joe"
INDEX 00 00:00:00
INDEX 01 00:00:32
TRACK 02 AUDIO
TITLE "Ready To Ride"
PERFORMER "B - Joe"
INDEX 00 03:42:04
INDEX 01 03:43:30
TRACK 03 AUDIO
TITLE "Dirty Sheets"
PERFORMER "B - Joe"
INDEX 00 07:25:65
INDEX 01 07:27:17
TRACK 04 AUDIO
TITLE "Don't Wanna Lose You"
PERFORMER "B - Joe"
INDEX 00 11:57:37
INDEX 01 11:59:32
TRACK 05 AUDIO
TITLE "Forty Days"
PERFORMER "B - Joe"
INDEX 00 16:36:62
INDEX 01 16:39:50
TRACK 06 AUDIO
TITLE "Lies"
PERFORMER "B - Joe"
INDEX 00 20:48:36
INDEX 01 20:49:70
TRACK 07 AUDIO
TITLE "Brand New Start"
PERFORMER "B - Joe"
INDEX 00 24:40:27
INDEX 01 24:42:20
TRACK 08 AUDIO
TITLE "Alright Now"
PERFORMER "B - Joe"
INDEX 00 29:22:11
INDEX 01 29:23:62
TRACK 09 AUDIO
TITLE "All The Nights"
PERFORMER "B - Joe"
INDEX 00 33:00:06
INDEX 01 33:01:02


phpBB [youtube]

_________________


Top
 Profile E-mail  
 
 
PostPosted: 08 Mar 2013 
Я набрал 1000 сообщений!
Joined: 24 Oct 2009
Posts: 2120
Lоcаtion: Оренбург
Age: 55
Name: Юра
Спасибо Саныч!

_________________
:dash: I am happy!


Top
 Profile E-mail  
 
 
PostPosted: 08 Mar 2013 
спирт 100%
User avatar
Joined: 22 Sep 2008
Posts: 4323
Age: 47
Name: Саня
Спасибо! :thanx:


Top
 Profile  
 
 
PostPosted: 10 Mar 2013 
Персональный статус
User avatar
Joined: 02 Jul 2009
Posts: 293
Name: Александр
Спасибо большое !!!!!!!! :thanx:


Top
 Profile E-mail  
 
Display posts from previous:  Sort by  
Post new topic Reply to topic  [ 4 posts ] 

All times are UTC + 3 hours


Who is online

Users browsing this forum: No registered users and 2 guests


You cannot post new topics in this forum
You cannot reply to topics in this forum
You cannot edit your posts in this forum
You cannot delete your posts in this forum
You cannot post attachments in this forum

Search for:
Яндекс.Метрика
Powered by phpBB © 2000, 2002, 2005, 2007 phpBB Group