\m/ 80's metal \m/

Информационно-аналитический форум "80 см пыли" (In Search We Trust) "У нас никто никуда не спешит"
Me For You - http://me-4u.com
It is currently 20 Oct 2018

All times are UTC + 3 hours

Spoiler
Chat - temporary registration for foreign users (please leave your application here)







Post new topic Reply to topic  [ 5 posts ] 
Author Message
 
PostPosted: 25 Nov 2012 
Работнечег
User avatar
Joined: 28 Aug 2007
Posts: 5468
Lоcаtion: г. Москва
Age: 29
Name: Дима
Image

Band: Blind Petition
Album: Forever Alive!
Label: Edel Records
Genre: Hard Rock
Country: Austria
Format: Flac + Log + Cue + Covers/Mp3@320 kbps + Covers
Size: 407Mb/130 Mb

Line-Up:
Jo Haas - Bass (ex-Underdog, Federal Funk Department, Gimmix, Hellcat)
Hannes "Fusel" Bartsch - Guitar
Alex Lipscher - Vocals (Bad Sellin' Record)
Robert Suk - Drums (R.I.P. 2003)
Martin Sobotnik - Guitar (ex-Mangroove)


Tracklist:
1. Good Evening Vienna 00:20
2. Man'O Spirit Man'O Fate 03:37
3. The Last Act 04:36
4. Out To Get You 04:13
5. Highway's Sidewalk 03:59
6. Rich, Young, Hot 03:53
7. Insane 04:50
8. Too Blue 01:11
9. Heart Attack 04:40
10. Perfect Smile 04:32
11. Freak 06:08
12. Up On The Hill 03:50
13. Highway Devils 03:09
14. Welcome To Win 03:28

LOG
Exact Audio Copy V0.99 prebeta 5 from 4. May 2009

EAC extraction logfile from 20. November 2012, 22:43

Blind Petition / Forever Alive!

Used drive : PIONEER DVD-RW DVR-116D Adapter: 0 ID: 0

Read mode : Secure
Utilize accurate stream : Yes
Defeat audio cache : Yes
Make use of C2 pointers : No

Read offset correction : 96
Overread into Lead-In and Lead-Out : No
Fill up missing offset samples with silence : Yes
Delete leading and trailing silent blocks : No
Null samples used in CRC calculations : Yes
Used interface : Native Win32 interface for Win NT & 2000

Used output format : User Defined Encoder
Selected bitrate : 32 kBit/s
Quality : High
Add ID3 tag : No
Command line compressor : C:\Program Files\Exact Audio Copy\Flac\flac.exe
Additional command line options : -6 -V %s


TOC of the extracted CD

Track | Start | Length | Start sector | End sector
---------------------------------------------------------
1 | 0:00.00 | 0:19.65 | 0 | 1489
2 | 0:19.65 | 3:37.10 | 1490 | 17774
3 | 3:57.00 | 4:36.27 | 17775 | 38501
4 | 8:33.27 | 4:13.03 | 38502 | 57479
5 | 12:46.30 | 3:59.32 | 57480 | 75436
6 | 16:45.62 | 3:53.03 | 75437 | 92914
7 | 20:38.65 | 4:50.27 | 92915 | 114691
8 | 25:29.17 | 1:11.15 | 114692 | 120031
9 | 26:40.32 | 4:40.13 | 120032 | 141044
10 | 31:20.45 | 4:32.37 | 141045 | 161481
11 | 35:53.07 | 6:07.55 | 161482 | 189061
12 | 42:00.62 | 3:50.28 | 189062 | 206339
13 | 45:51.15 | 3:08.65 | 206340 | 220504
14 | 49:00.05 | 3:27.50 | 220505 | 236079


Range status and errors

Selected range

Filename D:\Музыка\Lossless\Blind Petition - Forever (A)live (1999)\Blind Petition - Forever Alive!.wav

Peak level 99.4 %
Range quality 100.0 %
Copy CRC ABF95E16
Copy OK

No errors occurred


AccurateRip summary

Track 1 not present in database
Track 2 not present in database
Track 3 not present in database
Track 4 not present in database
Track 5 not present in database
Track 6 not present in database
Track 7 not present in database
Track 8 not present in database
Track 9 not present in database
Track 10 not present in database
Track 11 not present in database
Track 12 not present in database
Track 13 not present in database
Track 14 not present in database

None of the tracks are present in the AccurateRip database

End of status report

CUE
REM GENRE "Hard Rock"
REM DATE 1999
REM DISCID A20C4B0E
REM COMMENT "ExactAudioCopy v0.99pb5"
PERFORMER "Blind Petition"
TITLE "Forever Alive!"
FILE "Blind Petition - Forever Alive!.flac" WAVE
TRACK 01 AUDIO
TITLE "Good Evening Vienna"
PERFORMER "Blind Petition"
FLAGS DCP
INDEX 01 00:00:00
TRACK 02 AUDIO
TITLE "Mon'o Spirit Man'o Fate"
PERFORMER "Blind Petition"
FLAGS DCP
INDEX 01 00:19:65
TRACK 03 AUDIO
TITLE "The Last Act"
PERFORMER "Blind Petition"
FLAGS DCP
INDEX 01 03:57:00
TRACK 04 AUDIO
TITLE "Out To Get You"
PERFORMER "Blind Petition"
FLAGS DCP
INDEX 01 08:33:27
TRACK 05 AUDIO
TITLE "Highway's Sidewalk"
PERFORMER "Blind Petition"
FLAGS DCP
INDEX 01 12:46:30
TRACK 06 AUDIO
TITLE "Rich, Young, Hot"
PERFORMER "Blind Petition"
FLAGS DCP
INDEX 01 16:45:62
TRACK 07 AUDIO
TITLE "Insane"
PERFORMER "Blind Petition"
FLAGS DCP
INDEX 01 20:38:65
TRACK 08 AUDIO
TITLE "Too Blue"
PERFORMER "Blind Petition"
FLAGS DCP
INDEX 01 25:29:17
TRACK 09 AUDIO
TITLE "Heart Attack"
PERFORMER "Blind Petition"
FLAGS DCP
INDEX 01 26:40:32
TRACK 10 AUDIO
TITLE "Perfect Smile"
PERFORMER "Blind Petition"
FLAGS DCP
INDEX 01 31:20:45
TRACK 11 AUDIO
TITLE "Freak"
PERFORMER "Blind Petition"
FLAGS DCP
INDEX 01 35:53:07
TRACK 12 AUDIO
TITLE "Up On The Hill"
PERFORMER "Blind Petition"
FLAGS DCP
INDEX 01 42:00:62
INDEX 02 42:05:02
TRACK 13 AUDIO
TITLE "Highway Devils"
PERFORMER "Blind Petition"
FLAGS DCP
INDEX 01 45:51:15
INDEX 02 48:56:30
TRACK 14 AUDIO
TITLE "Welcome To Win"
PERFORMER "Blind Petition"
FLAGS DCP
INDEX 01 49:00:05

Spectrum
Image


FLAC
MP3@320

Приятный концертник :true:


Top
 Profile E-mail  
 
 
PostPosted: 25 Nov 2012 
Работнечег
User avatar
Joined: 28 Aug 2007
Posts: 5468
Lоcаtion: г. Москва
Age: 29
Name: Дима
Другие альбомы на форуме в lossless:
Blind Petition - Perversum Maximum (1988)
Blind Petition - 1990 Live (1990)
Blind Petition - Bloody Reunion (2007)
и собственно тема по группе с мп3:
Blind Petition


Top
 Profile E-mail  
 
 
PostPosted: 25 Nov 2012 
спирт 100%
User avatar
Joined: 22 Sep 2008
Posts: 4305
Age: 47
Name: Саня
O, Дим Спасибо! :thanx:


Top
 Profile  
 
 
PostPosted: 26 Nov 2012 
Хиппей (support team)
User avatar
Joined: 30 Jul 2007
Posts: 107074
Lоcаtion: Киев (Kyiv, UA)
Age: 45
Name: Andrey
:thanx:

mirror: MultiUp l Narod

_________________


Top
 Profile E-mail  
 
 
PostPosted: 28 Nov 2012 
Пионэръ
Joined: 24 Apr 2012
Posts: 18
Lоcаtion: Russia
Name: Boris
Премного благодарен!


Top
 Profile E-mail  
 
Display posts from previous:  Sort by  
Post new topic Reply to topic  [ 5 posts ] 

All times are UTC + 3 hours


Who is online

Users browsing this forum: No registered users and 4 guests


You cannot post new topics in this forum
You cannot reply to topics in this forum
You cannot edit your posts in this forum
You cannot delete your posts in this forum
You cannot post attachments in this forum

Search for:
Яндекс.Метрика
Powered by phpBB © 2000, 2002, 2005, 2007 phpBB Group