\m/ 80's metal \m/

Информационно-аналитический форум "80 см пыли" (In Search We Trust) "У нас никто никуда не спешит"
Me For You - http://me-4u.com
It is currently 12 Dec 2018

All times are UTC + 3 hours

Spoiler
Chat - temporary registration for foreign users (please leave your application here)







Post new topic Reply to topic  [ 6 posts ] 
Author Message
 
PostPosted: 07 Nov 2012 
А может смените мне статус?..
User avatar
Joined: 24 Sep 2012
Posts: 856
Lоcаtion: Нижегородская обл.
Age: 48
Name: Вячеслав
Image

Исполнитель: Brainfever
Альбом: Capture the Night
Cтрана: Germany ( Cologne, North Rhine-Westphalia)
Год издания: 1984 (Reissued 1994)
Издатель (лейбл): Mausoleum
Номер по каталогу: 704133.2
Жанр: Traditional Heavy Metal
Формат Аудио: FLAC (Cue/Log/Image)+ All Scans
Продолжительность Звучания Альбома: 00:40:04
Размер Архива: 318 Mb (+ 3% recovery)
Источник (релизер): slayer19

Треклист:

01. Into the Sky (03:48)
02. Hangman (05:29)
03. Danger of the Night (04:10)
04. Thunder & Lightning (03:22)
05. Dirty Streets (03:52)
06. Brainfever (03:41)
07. Capture the Night (03:40)
08. Midnight Train (03:21)
09. Tool for the Show (03:15)
10. Suicide (05:25)

"Лог создания рипа"
Exact Audio Copy V1.0 beta 3 from 29. August 2011

Отчёт EAC об извлечении, выполненном 7. ноября 2012, 10:01

Brainfever / Capture the Night

Дисковод: Optiarc DVD RW AD-7200A Adapter: 0 ID: 0

Режим чтения : Достоверность
Использование точного потока : Да
Отключение кэша аудио : Да
Использование указателей C2 : Нет

Коррекция смещения при чтении : 48
Способность читать области Lead-in и Lead-out : Нет
Заполнение пропущенных сэмплов тишиной : Да
Удаление блоков с тишиной в начале и конце : Нет
При вычислениях CRC использовались нулевые сэмплы : Да
Интерфейс : Встроенный Win32-интерфейс для Win NT/2000

Выходной формат : Пользовательский кодировщик
Выбранный битрейт : 128 kBit/s
Качество : Высокий
Добавление ID3-тега : Нет
Утилита сжатия : C:\Program Files\FLAC\FLAC frontend.exe

TOC извлечённого CD

Трек | Старт | Длительность | Начальный сектор | Конечный сектор
---------------------------------------------------------------------
1 | 0:00.00 | 3:47.67 | 0 | 17091
2 | 3:47.67 | 5:29.28 | 17092 | 41794
3 | 9:17.20 | 4:09.50 | 41795 | 60519
4 | 13:26.70 | 3:22.02 | 60520 | 75671
5 | 16:48.72 | 3:52.28 | 75672 | 93099
6 | 20:41.25 | 3:41.17 | 93100 | 109691
7 | 24:22.42 | 3:40.30 | 109692 | 126221
8 | 28:02.72 | 3:20.53 | 126222 | 141274
9 | 31:23.50 | 3:15.27 | 141275 | 155926
10 | 34:39.02 | 5:24.63 | 155927 | 180289

Характеристики диапазона извлечения и сообщения об ошибках

Выбранный диапазон

Имя файла D:\МОИ ФАЙЛЫ\LOSSLESS\slayer19\Brainfever - Capture the Night.wav

Пиковый уровень 99.0 %
Скорость извлечения 3.6 X
Качество диапазона 100.0 %
CRC теста 2596AE07
CRC копии 2596AE07
Копирование... OK

Ошибок не произошло

AccurateRip: сводка

Трек 1 : извлечено точно (доверие 1) [F9616AED] (AR v1)
Трек 2 : извлечено точно (доверие 1) [2AB4FA43] (AR v1)
Трек 3 : извлечено точно (доверие 1) [558E78F8] (AR v1)
Трек 4 : извлечено точно (доверие 1) [C4D4AC1E] (AR v1)
Трек 5 : извлечено точно (доверие 1) [B21A47F0] (AR v1)
Трек 6 : извлечено точно (доверие 1) [BBEEC12E] (AR v1)
Трек 7 : извлечено точно (доверие 1) [F8EB46AE] (AR v1)
Трек 8 : извлечено точно (доверие 1) [807995DA] (AR v1)
Трек 9 : извлечено точно (доверие 1) [3EA8A647] (AR v1)
Трек 10 : извлечено точно (доверие 1) [1B8EB4D6] (AR v1)

Все треки извлечены точно

Конец отчёта

---- CUETools DB Plugin V2.1.3

[CTDB TOCID: kY8c4Q3jYfZNN7ehiQ2efdAd6dA-] found, Submit result: kY8c4Q3jYfZNN7ehiQ2efdAd6dA- has been uploaded
[8032fde2] (1/1) No match

==== Контрольная сумма отчёта 00D068F33FFBD3D0D900DDF513606B4134B02DE8843F05CA2DF4C5617BC16753 ====

"Фото"
Image


Скачать: Brainfever - Capture the Night 1984 (Reissued 1994) by slayer19.rar

_________________
Image


Top
 Profile E-mail  
 
 
PostPosted: 07 Nov 2012 
А может смените мне статус?..
User avatar
Joined: 25 Mar 2009
Posts: 589
Lоcаtion: Нижний Новгород
Age: 48
Name: Владимир
:thanx: :true:


Top
 Profile  
 
 
PostPosted: 07 Nov 2012 
***


Last edited by Вася_металлист_2012 on 14 Dec 2012, edited 1 time in total.

Top
  
 
 
PostPosted: 08 Nov 2012 
Почётный металлург
User avatar
Joined: 15 Sep 2007
Posts: 4357
Lоcаtion: Хабаровск
Age: 58
Name: чуть выше
Спасибо! :thanx:

_________________
Коль будешь людей ты ослами честить,
тебе человеком меж них не прослыть!
(Саади, персидский поэт, 13в.)


Top
 Profile  
 
 
PostPosted: 09 Nov 2012 
А может смените мне статус?..
User avatar
Joined: 24 Sep 2012
Posts: 856
Lоcаtion: Нижегородская обл.
Age: 48
Name: Вячеслав
Всем пожалуйста! :drink:

_________________
Image


Top
 Profile E-mail  
 
 
PostPosted: 13 Aug 2013 
Хиппей (support team)
User avatar
Joined: 30 Jul 2007
Posts: 108837
Lоcаtion: Киев (Kyiv, UA)
Age: 45
Name: Andrey
:thanx:

mirror: F-Bit l Narod l eDisk

_________________


Top
 Profile E-mail  
 
Display posts from previous:  Sort by  
Post new topic Reply to topic  [ 6 posts ] 

All times are UTC + 3 hours


Who is online

Users browsing this forum: No registered users and 4 guests


You cannot post new topics in this forum
You cannot reply to topics in this forum
You cannot edit your posts in this forum
You cannot delete your posts in this forum
You cannot post attachments in this forum

Search for:
Яндекс.Метрика
Powered by phpBB © 2000, 2002, 2005, 2007 phpBB Group