\m/ 80's metal \m/

Информационно-аналитический форум "80 см пыли" (In Search We Trust) "У нас никто никуда не спешит"
Me For You - http://me-4u.com
It is currently 19 Dec 2018

All times are UTC + 3 hours

Spoiler
Chat - temporary registration for foreign users (please leave your application here)







Post new topic Reply to topic  [ 46 posts ]  Go to page Previous  1, 2, 3
Author Message
 
PostPosted: 15 Oct 2013 
Я набрал 1000 сообщений!
Joined: 24 Oct 2009
Posts: 2126
Lоcаtion: Оренбург
Age: 55
Name: Юра
Парни кто искал?
Boycott / Lightning Strikes Back!
+
http://rutracker.org/forum/viewtopic.php?t=4560084

_________________
:dash: I am happy!


Top
 Profile E-mail  
 
 
PostPosted: 15 Oct 2013 
Трешер
User avatar
Joined: 25 Feb 2011
Posts: 1062
Lоcаtion: Харьков
Age: 42
Name: Aleksandr
Спасибо за наводку ! :true: Уже качаю

:dance:


Top
 Profile E-mail  
 
 
PostPosted: 17 Oct 2013 
Хиппей (support team)
User avatar
Joined: 30 Jul 2007
Posts: 109030
Lоcаtion: Киев (Kyiv, UA)
Age: 45
Name: Andrey
Блин. Шото многовато тем по этой группе обнаружиЛось :lloo:

_________________


Top
 Profile E-mail  
 
 
PostPosted: 17 Oct 2013 
Alive Again
User avatar
Joined: 17 Dec 2008
Posts: 4744
Lоcаtion: Курск Воронеж Оскол
Age: 44
Name: Дмитрий
Парни кто искал?
Boycott / Lightning Strikes Back!
+
http://rutracker.org/forum/viewtopic.php?t=4560084


все искали!
:thanx:


Top
 Profile E-mail  
 
 
PostPosted: 17 Oct 2013 
Хиппей (support team)
User avatar
Joined: 30 Jul 2007
Posts: 109030
Lоcаtion: Киев (Kyiv, UA)
Age: 45
Name: Andrey
И все скачали? =)

Я пока качнул, скоро перезалью.

_________________


Top
 Profile E-mail  
 
 
PostPosted: 17 Oct 2013 
Хиппей (support team)
User avatar
Joined: 30 Jul 2007
Posts: 109030
Lоcаtion: Киев (Kyiv, UA)
Age: 45
Name: Andrey
Boycott - 1990 - Lightning Strikes Back! [ape]

mirror: Narod

log
Exact Audio Copy V0.99 prebeta 4 from 23. January 2008

EAC extraction logfile from 13. October 2013, 17:19

Boycott / Lightning Strikes Back!

Used drive : ASUS DRW-24B5ST Adapter: 5 ID: 0

Read mode : Secure
Utilize accurate stream : Yes
Defeat audio cache : Yes
Make use of C2 pointers : No

Read offset correction : 6
Overread into Lead-In and Lead-Out : No
Fill up missing offset samples with silence : Yes
Delete leading and trailing silent blocks : No
Null samples used in CRC calculations : Yes
Used interface : Installed external ASPI interface

Used output format : Internal WAV Routines
Sample format : 44.100 Hz; 16 Bit; Stereo


TOC of the extracted CD

Track | Start | Length | Start sector | End sector
---------------------------------------------------------
1 | 0:00.00 | 5:03.55 | 0 | 22779
2 | 5:03.55 | 3:15.20 | 22780 | 37424
3 | 8:19.00 | 4:38.65 | 37425 | 58339
4 | 12:57.65 | 3:04.50 | 58340 | 72189
5 | 16:02.40 | 4:27.52 | 72190 | 92266
6 | 20:30.17 | 4:25.03 | 92267 | 112144
7 | 24:55.20 | 4:01.00 | 112145 | 130219
8 | 28:56.20 | 3:26.67 | 130220 | 145736
9 | 32:23.12 | 4:11.25 | 145737 | 164586
10 | 36:34.37 | 4:57.25 | 164587 | 186886


Range status and errors

Selected range

Filename D:\temp\Boycott - Lightning Strikes Back!.wav

Peak level 100.0 %
Range quality 99.9 %
Copy CRC 3307336E
Copy OK

No errors occurred


AccurateRip summary

Track 1 accurately ripped (confidence 1) [67FDDD21]
Track 2 accurately ripped (confidence 1) [8321D88B]
Track 3 accurately ripped (confidence 1) [7926AE42]
Track 4 accurately ripped (confidence 1) [EBB04BD9]
Track 5 accurately ripped (confidence 1) [0C28F715]
Track 6 accurately ripped (confidence 1) [1535B5C3]
Track 7 accurately ripped (confidence 1) [C352CCD3]
Track 8 accurately ripped (confidence 1) [D0B27C4B]
Track 9 accurately ripped (confidence 1) [4FF2899A]
Track 10 accurately ripped (confidence 1) [989201E5]

All tracks accurately ripped

End of status report

cue
REM DATE 1990
REM DISCID 8F09BB0A
REM COMMENT "ExactAudioCopy v0.99pb4"
PERFORMER "Boycott"
TITLE "Lightning Strikes Back!"
FILE "Boycott - Lightning Strikes Back!.ape" WAVE
TRACK 01 AUDIO
TITLE "Truth"
PERFORMER "Boycott"
INDEX 01 00:00:00
TRACK 02 AUDIO
TITLE "Ain't Me You Love"
PERFORMER "Boycott"
INDEX 01 05:03:55
TRACK 03 AUDIO
TITLE "Sha La La"
PERFORMER "Boycott"
INDEX 00 08:17:45
INDEX 01 08:19:00
TRACK 04 AUDIO
TITLE "Shotgun"
PERFORMER "Boycott"
INDEX 00 12:57:10
INDEX 01 12:57:65
TRACK 05 AUDIO
TITLE "Rock With Me"
PERFORMER "Boycott"
INDEX 01 16:02:40
TRACK 06 AUDIO
TITLE "Can't Get Over You"
PERFORMER "Boycott"
INDEX 00 20:29:17
INDEX 01 20:30:17
TRACK 07 AUDIO
TITLE "Come Back And Stay"
PERFORMER "Boycott"
INDEX 00 24:54:42
INDEX 01 24:55:20
TRACK 08 AUDIO
TITLE "Well IT's My Life"
PERFORMER "Boycott"
INDEX 00 28:54:55
INDEX 01 28:56:20
TRACK 09 AUDIO
TITLE "Lifetime"
PERFORMER "Boycott"
INDEX 00 32:22:22
INDEX 01 32:23:12
TRACK 10 AUDIO
TITLE "Giving It All Up For Love"
PERFORMER "Boycott"
INDEX 00 36:34:00
INDEX 01 36:34:37

Image

_________________


Top
 Profile E-mail  
 
Display posts from previous:  Sort by  
Post new topic Reply to topic  [ 46 posts ]  Go to page Previous  1, 2, 3

All times are UTC + 3 hours


Who is online

Users browsing this forum: No registered users and 2 guests


You cannot post new topics in this forum
You cannot reply to topics in this forum
You cannot edit your posts in this forum
You cannot delete your posts in this forum
You cannot post attachments in this forum

Search for:
Яндекс.Метрика
Powered by phpBB © 2000, 2002, 2005, 2007 phpBB Group