\m/ 80's metal \m/

Информационно-аналитический форум "80 см пыли" (In Search We Trust) "У нас никто никуда не спешит"
Me For You - http://me-4u.com
It is currently 17 Oct 2018

All times are UTC + 3 hours

Spoiler
Chat - temporary registration for foreign users (please leave your application here)







Post new topic Reply to topic  [ 8 posts ] 
Author Message
 
PostPosted: 16 Sep 2012 
Работнечег
User avatar
Joined: 28 Aug 2007
Posts: 5465
Lоcаtion: г. Москва
Age: 29
Name: Дима
Image

Band: Breaker
Album: Get Tough!
Label: Auburn Records
Genre: Heavy Metal
Country: USA
Format: Flac + Log + Cue + Covers
Size: 789 Mb

Line-Up:
Jim Hamar - Vocals
Don Depew - Guitar, Backing Vocals; Bass on "Razor's Edge"
Michael Klein - Guitar, Backing Vocals
Ian Shipley - Bass, Backing Vocals
Mark Klein - Drums, Backing Vocals


Tracklist:
CD 1 - (Original 1987 Release
1. Lie To Me
2. 10 Seconds In
3. Get Tough
4. Razor's Edge
5. Obsession
6. Blood Money
7. Black And White
8. Behind Enemy Lines
9. Wait For The Night
10. From The Heart

CD 2 - (Demos , Rarities , Live Tracks)
1. Standing In The Light
2. Action
3. Caught In Love
4. Still Life
5. Touch Like Thunder
6. Dead In Your Tracks
7. The Hurt
8. Cold Air
9. All Or Nothing
10. 10 Seconds In
11. Walking The Wire
12. Blood Money
13. Afraid Of The Dark
14. From The Heart
15. Entering Twilight
16. No More Cries

LOG
Exact Audio Copy V0.99 prebeta 5 from 4. May 2009

EAC extraction logfile from 15. September 2012, 17:15

Breaker / Get Tough!

Used drive : PIONEER DVD-RW DVR-116D Adapter: 0 ID: 0

Read mode : Secure
Utilize accurate stream : Yes
Defeat audio cache : Yes
Make use of C2 pointers : No

Read offset correction : 96
Overread into Lead-In and Lead-Out : No
Fill up missing offset samples with silence : Yes
Delete leading and trailing silent blocks : No
Null samples used in CRC calculations : Yes
Used interface : Native Win32 interface for Win NT & 2000

Used output format : User Defined Encoder
Selected bitrate : 32 kBit/s
Quality : High
Add ID3 tag : No
Command line compressor : C:\Program Files\Exact Audio Copy\Flac\flac.exe
Additional command line options : -6 -V %s


TOC of the extracted CD

Track | Start | Length | Start sector | End sector
---------------------------------------------------------
1 | 0:00.00 | 3:08.25 | 0 | 14124
2 | 3:08.25 | 4:27.50 | 14125 | 34199
3 | 7:36.00 | 4:30.10 | 34200 | 54459
4 | 12:06.10 | 2:59.37 | 54460 | 67921
5 | 15:05.47 | 5:54.13 | 67922 | 94484
6 | 20:59.60 | 3:33.20 | 94485 | 110479
7 | 24:33.05 | 3:54.10 | 110480 | 128039
8 | 28:27.15 | 3:51.25 | 128040 | 145389
9 | 32:18.40 | 4:47.62 | 145390 | 166976
10 | 37:06.27 | 3:02.23 | 166977 | 180649


Range status and errors

Selected range

Filename D:\Музыка\Lossless\Breaker - Get Tough! (1987) (Re-released In 2000)\CD 1\Breaker - Get Tough!.wav

Peak level 98.3 %
Range quality 100.0 %
Copy CRC 6D6C2EB6
Copy OK

No errors occurred


AccurateRip summary

Track 1 accurately ripped (confidence 1) [802F4298]
Track 2 accurately ripped (confidence 1) [AAADE91F]
Track 3 accurately ripped (confidence 1) [085DFAB7]
Track 4 accurately ripped (confidence 1) [3C7FCE78]
Track 5 accurately ripped (confidence 1) [8248D79B]
Track 6 accurately ripped (confidence 1) [DBCC83EA]
Track 7 accurately ripped (confidence 1) [055E7F18]
Track 8 accurately ripped (confidence 1) [774B84B3]
Track 9 accurately ripped (confidence 1) [9A8D2B63]
Track 10 accurately ripped (confidence 1) [D1F5CA52]

All tracks accurately ripped

End of status report

CUE
REM GENRE "Heavy Metal"
REM DATE 1987
REM DISCID 8609680A
REM COMMENT "ExactAudioCopy v0.99pb5"
PERFORMER "Breaker"
TITLE "Get Tough!"
FILE "Breaker - Get Tough!.flac" WAVE
TRACK 01 AUDIO
TITLE "Lie To Me"
PERFORMER "Breaker"
INDEX 01 00:00:00
TRACK 02 AUDIO
TITLE "10 Seconds In"
PERFORMER "Breaker"
INDEX 01 03:08:25
TRACK 03 AUDIO
TITLE "Get Tough"
PERFORMER "Breaker"
INDEX 00 07:34:32
INDEX 01 07:36:00
TRACK 04 AUDIO
TITLE "Razor's Edge"
PERFORMER "Breaker"
INDEX 00 12:04:15
INDEX 01 12:06:10
TRACK 05 AUDIO
TITLE "Obsession"
PERFORMER "Breaker"
INDEX 01 15:05:47
TRACK 06 AUDIO
TITLE "Blood Money"
PERFORMER "Breaker"
INDEX 00 20:57:30
INDEX 01 20:59:60
TRACK 07 AUDIO
TITLE "Black And White"
PERFORMER "Breaker"
INDEX 00 24:30:57
INDEX 01 24:33:05
TRACK 08 AUDIO
TITLE "Behind Enemy Lines"
PERFORMER "Breaker"
INDEX 00 28:25:12
INDEX 01 28:27:15
TRACK 09 AUDIO
TITLE "Wait For The Night"
PERFORMER "Breaker"
INDEX 00 32:16:47
INDEX 01 32:18:40
TRACK 10 AUDIO
TITLE "From The Heart"
PERFORMER "Breaker"
INDEX 00 37:04:32
INDEX 01 37:06:27


Narod.Ru

Собственно очень хороший альбом, думаю многие слушали! Относительно редкое двухдисковое издание. Мр3@320 есть на рутрэкере, если кому надо.


Top
 Profile E-mail  
 
 
PostPosted: 16 Sep 2012 
Прокъмитолист
User avatar
Joined: 12 Aug 2007
Posts: 6488
Lоcаtion: Санктъ-Петербуркъ
Age: 50
Name: Олекъ
пригодится. спасибо, Дим! :thanx:

_________________
прокъметол - это музыко, от которово есть прок (ы)


Top
 Profile  
 
 
PostPosted: 17 Sep 2012 
Хиппей (support team)
User avatar
Joined: 30 Jul 2007
Posts: 106944
Lоcаtion: Киев (Kyiv, UA)
Age: 45
Name: Andrey
:thanx:

_________________


Top
 Profile E-mail  
 
 
PostPosted: 17 Sep 2012 
спирт 100%
User avatar
Joined: 22 Sep 2008
Posts: 4301
Age: 47
Name: Саня
Дим,Спасибо! :thanx:


Top
 Profile  
 
 
PostPosted: 17 Sep 2012 
***


Last edited by Вася_металлист_2012 on 14 Dec 2012, edited 1 time in total.

Top
  
 
 
PostPosted: 17 Sep 2012 
Анатолий
User avatar
Joined: 18 Oct 2008
Posts: 3132
Lоcаtion: Армавир
Age: 41
Name: Анатолий
church

Спасибо большое! :thanx: Давно хотелось послушать! :true:


Top
 Profile E-mail  
 
 
PostPosted: 20 Sep 2012 
Персональный статус
User avatar
Joined: 22 Oct 2011
Posts: 352
Lоcаtion: Moscow
Age: 59
Name: Серёжа
:thanx:


Top
 Profile E-mail  
 
 
PostPosted: 17 Sep 2013 
Трешер
User avatar
Joined: 25 Feb 2011
Posts: 1053
Lоcаtion: Харьков
Age: 42
Name: Aleksandr
Спасибо ! :thanx: Только сейчас нашел !


Top
 Profile E-mail  
 
Display posts from previous:  Sort by  
Post new topic Reply to topic  [ 8 posts ] 

All times are UTC + 3 hours


Who is online

Users browsing this forum: No registered users and 2 guests


You cannot post new topics in this forum
You cannot reply to topics in this forum
You cannot edit your posts in this forum
You cannot delete your posts in this forum
You cannot post attachments in this forum

Search for:
Яндекс.Метрика
Powered by phpBB © 2000, 2002, 2005, 2007 phpBB Group