\m/ 80's metal \m/

Информационно-аналитический форум "80 см пыли" (In Search We Trust) "У нас никто никуда не спешит"
Me For You - http://me-4u.com
It is currently 12 Dec 2018

All times are UTC + 3 hours

Spoiler
Chat - temporary registration for foreign users (please leave your application here)







Post new topic Reply to topic  [ 9 posts ] 
Author Message
 
PostPosted: 13 Jul 2012 
Работнечег
User avatar
Joined: 28 Aug 2007
Posts: 5599
Lоcаtion: г. Москва
Age: 29
Name: Дима
Image

Band: Blind Petition
Album: Bloody Reunion
Label: FRW Records
Genre: Hard Rock
Country: Austria
Format: Flac + Log + Cue + Covers
Size: 360 Mb

Line-Up:
Reinhard Kochauf - Bass
Hannes "Fusel" Bartsch -Rhytm, Bass, Solo Guitar
Gary Wheeler - Vocals (ex-Blowin Free, ex-Break Point, ex-Godzilla, Gary Wheeler, Stahlhammer, ex-Lady, ex-Stalynn)
Mario Brodtrager - Drums (Francis Soto, ex-Desert Storm, ex-Sextiger (live), ex-Rising Down (live), ex-Kingdom Come)
Bertl Bartsch - Guitars, Harp


Tracklist:
1. Bloody Reunion 03:30
2. The Big Things 03:34
3. Wasted 04:08
4. Good Under Me 03:58
5. Follow the Rules 05:06
6. Number One 03:40
7. Even A Soldier 05:44
8. Celebs 04:12
9. Aces 05:18
10. Speed It Up 03:23
11. Ain't Going to Sleep 04:02

LOG
Exact Audio Copy V0.99 prebeta 5 from 4. May 2009

EAC extraction logfile from 12. July 2012, 13:53

Blind Petition / Bloody Reunion

Used drive : PIONEER DVD-RW DVR-116D Adapter: 0 ID: 0

Read mode : Secure
Utilize accurate stream : Yes
Defeat audio cache : Yes
Make use of C2 pointers : No

Read offset correction : 96
Overread into Lead-In and Lead-Out : No
Fill up missing offset samples with silence : Yes
Delete leading and trailing silent blocks : No
Null samples used in CRC calculations : Yes
Used interface : Native Win32 interface for Win NT & 2000

Used output format : User Defined Encoder
Selected bitrate : 32 kBit/s
Quality : High
Add ID3 tag : No
Command line compressor : C:\Program Files\Exact Audio Copy\Flac\flac.exe
Additional command line options : -6 -V %s


TOC of the extracted CD

Track | Start | Length | Start sector | End sector
---------------------------------------------------------
1 | 0:00.00 | 3:30.52 | 0 | 15801
2 | 3:30.52 | 3:34.20 | 15802 | 31871
3 | 7:04.72 | 4:08.01 | 31872 | 50472
4 | 11:12.73 | 3:58.19 | 50473 | 68341
5 | 15:11.17 | 5:06.58 | 68342 | 91349
6 | 20:18.00 | 3:48.03 | 91350 | 108452
7 | 24:06.03 | 5:44.68 | 108453 | 134320
8 | 29:50.71 | 4:11.72 | 134321 | 153217
9 | 34:02.68 | 5:18.00 | 153218 | 177067
10 | 39:20.68 | 3:23.12 | 177068 | 192304
11 | 42:44.05 | 4:02.17 | 192305 | 210471


Range status and errors

Selected range

Filename D:\Музыка\Lossless\Blind Petition - Bloody Reunion (2007)\Blind Petition - Bloody Reunion.wav

Peak level 98.8 %
Range quality 99.9 %
Copy CRC 00945519
Copy OK

No errors occurred


AccurateRip summary

Track 1 not present in database
Track 2 not present in database
Track 3 not present in database
Track 4 not present in database
Track 5 not present in database
Track 6 not present in database
Track 7 not present in database
Track 8 not present in database
Track 9 not present in database
Track 10 not present in database
Track 11 not present in database

None of the tracks are present in the AccurateRip database

End of status report

CUE
REM GENRE "Hard Rock"
REM DATE 2007
REM DISCID 840AF60B
REM COMMENT "ExactAudioCopy v0.99pb5"
PERFORMER "Blind Petition"
TITLE "Bloody Reunion"
FILE "Blind Petition - Bloody Reunion.flac" WAVE
TRACK 01 AUDIO
TITLE "Bloody Reunion"
PERFORMER "Blind Petition"
INDEX 01 00:00:00
TRACK 02 AUDIO
TITLE "The Big Things"
PERFORMER "Blind Petition"
INDEX 00 03:29:41
INDEX 01 03:30:52
TRACK 03 AUDIO
TITLE "Wasted"
PERFORMER "Blind Petition"
INDEX 00 07:04:13
INDEX 01 07:04:72
TRACK 04 AUDIO
TITLE "Good Under Me"
PERFORMER "Blind Petition"
INDEX 00 11:10:01
INDEX 01 11:12:73
TRACK 05 AUDIO
TITLE "Follow The Rules"
PERFORMER "Blind Petition"
INDEX 00 15:07:58
INDEX 01 15:11:17
TRACK 06 AUDIO
TITLE "Number One"
PERFORMER "Blind Petition"
INDEX 00 20:16:18
INDEX 01 20:18:00
TRACK 07 AUDIO
TITLE "Even A Soldier"
PERFORMER "Blind Petition"
INDEX 00 24:02:70
INDEX 01 24:06:03
TRACK 08 AUDIO
TITLE "Celebs"
PERFORMER "Blind Petition"
INDEX 00 29:47:53
INDEX 01 29:50:71
TRACK 09 AUDIO
TITLE "Aces"
PERFORMER "Blind Petition"
INDEX 00 34:00:30
INDEX 01 34:02:68
TRACK 10 AUDIO
TITLE "Speed It Up"
PERFORMER "Blind Petition"
INDEX 00 39:19:06
INDEX 01 39:20:68
TRACK 11 AUDIO
TITLE "Ain't going to sleep"
PERFORMER "Blind Petition"
INDEX 00 42:40:30
INDEX 01 42:44:05


Narod.Ru

Альбом мне вообщем не особо понраилось, мягковат) хотя пара хороших песен есть, может Артему или Сашке спруту понравится, а так больше для колекции :fingal:


Top
 Profile E-mail  
 
 
PostPosted: 13 Jul 2012 
Я набрал 1000 сообщений!
Joined: 24 Oct 2009
Posts: 2120
Lоcаtion: Оренбург
Age: 55
Name: Юра
Я тоже качну, может и мне пойдёт... Спасибо, Дима! :thanx:

_________________
:dash: I am happy!


Top
 Profile E-mail  
 
 
PostPosted: 13 Jul 2012 
Прокъмитолист
User avatar
Joined: 12 Aug 2007
Posts: 6513
Lоcаtion: Санктъ-Петербуркъ
Age: 51
Name: Олекъ
а и я для коллекции утащу. спасибо, Димка :thanx:
где пропадаешь? редко видно тебя в последнее время ;)

_________________
прокъметол - это музыко, от которово есть прок (ы)


Top
 Profile  
 
 
PostPosted: 13 Jul 2012 
Работнечег
User avatar
Joined: 28 Aug 2007
Posts: 5599
Lоcаtion: г. Москва
Age: 29
Name: Дима
а у меня отпуск) уезжал на неделю)) палаточная жизнь))


Top
 Profile E-mail  
 
 
PostPosted: 13 Jul 2012 
Генеральный thrasher
User avatar
Joined: 03 Oct 2008
Posts: 3535
Lоcаtion: Ханты-Мансийский АО
Age: 43
Name: Сергей
:losik: :thanx:


Top
 Profile  
 
 
PostPosted: 13 Jul 2012 
Прокъмитолист
User avatar
Joined: 12 Aug 2007
Posts: 6513
Lоcаtion: Санктъ-Петербуркъ
Age: 51
Name: Олекъ
church wrote:
а у меня отпуск) уезжал на неделю)) палаточная жизнь))

ну это отлично. все ж лето на дворе :true:

_________________
прокъметол - это музыко, от которово есть прок (ы)


Top
 Profile  
 
 
PostPosted: 15 Jul 2012 
Пионэръ
Joined: 24 Apr 2012
Posts: 18
Lоcаtion: Russia
Name: Boris
:dance:
Буклет отличный зато! Такое рисованое карандашно-компьютерное оформление. Диск в виде надкушенного шоколадного кекса!


Top
 Profile E-mail  
 
 
PostPosted: 20 Jul 2012 
Хиппей (support team)
User avatar
Joined: 30 Jul 2007
Posts: 108817
Lоcаtion: Киев (Kyiv, UA)
Age: 45
Name: Andrey
:thanx:

_________________


Top
 Profile E-mail  
 
 
PostPosted: 04 Aug 2012 
Персональный статус
Joined: 02 Apr 2010
Posts: 223
Name: Андрей
Спасибо. :thanx:


Top
 Profile  
 
Display posts from previous:  Sort by  
Post new topic Reply to topic  [ 9 posts ] 

All times are UTC + 3 hours


Who is online

Users browsing this forum: No registered users and 3 guests


You cannot post new topics in this forum
You cannot reply to topics in this forum
You cannot edit your posts in this forum
You cannot delete your posts in this forum
You cannot post attachments in this forum

Search for:
Яндекс.Метрика
Powered by phpBB © 2000, 2002, 2005, 2007 phpBB Group