\m/ 80's metal \m/

Информационно-аналитический форум "80 см пыли" (In Search We Trust) "У нас никто никуда не спешит"
Me For You - http://me-4u.com
It is currently 15 Dec 2018

All times are UTC + 3 hours

Spoiler
Chat - temporary registration for foreign users (please leave your application here)







Post new topic Reply to topic  [ 9 posts ] 
Author Message
 
PostPosted: 04 Jul 2012 
5-speed satisfactor
User avatar
Joined: 16 Feb 2009
Posts: 3633
Lоcаtion: New York, USA
Age: 40
Name: Leonid
Benediction - 1990 - Subconscious Terror (first press CD) [flac tracks]

Image

    1. Intro - Portal to Your Phobias - 02:28
    2. Subconscious Terror - 03:42
    3. Artefacted Irreligion - 03:20
    4. Grizzled Finale - 04:02
    5. Eternal Eclipse - 03:41
    6. Experimental Stage - 03:41
    7. Suspended Animation (instrumental) - 03:36
    8. Divine Ultimatum - 04:58
    9. Spit Forth the Dead - 04:45

    TPT:

Нарезал сам.

Rapid

log
Exact Audio Copy V0.99 prebeta 5 from 4. May 2009

EAC extraction logfile from 19. June 2012, 0:42

Benediction / Subconscious Terror

Used drive : PLEXTOR DVDR PX-760A Adapter: 1 ID: 0

Read mode : Secure
Utilize accurate stream : Yes
Defeat audio cache : Yes
Make use of C2 pointers : Yes

Read offset correction : 30
Overread into Lead-In and Lead-Out : Yes
Fill up missing offset samples with silence : Yes
Delete leading and trailing silent blocks : No
Null samples used in CRC calculations : Yes
Used interface : Installed external ASPI interface

Used output format : Internal WAV Routines
Sample format : 44.100 Hz; 16 Bit; Stereo


TOC of the extracted CD

Track | Start | Length | Start sector | End sector
---------------------------------------------------------
1 | 0:00.00 | 2:28.62 | 0 | 11161
2 | 2:28.62 | 3:41.73 | 11162 | 27809
3 | 6:10.60 | 3:20.07 | 27810 | 42816
4 | 9:30.67 | 4:01.20 | 42817 | 60911
5 | 13:32.12 | 3:41.50 | 60912 | 77536
6 | 17:13.62 | 3:40.13 | 77537 | 94049
7 | 20:54.00 | 3:36.35 | 94050 | 110284
8 | 24:30.35 | 4:58.05 | 110285 | 132639
9 | 29:28.40 | 4:44.50 | 132640 | 153989
10 | 34:13.15 | 3:54.00 | 153990 | 171539


Range status and errors

Selected range

Filename P:\FLAC\Benediction - Subconscious Terror.wav

Peak level 100.0 %
Range quality 99.9 %
Copy CRC 3A53A13D
Copy OK

No errors occurred

End of status report


Exact Audio Copy V0.99 prebeta 5 from 4. May 2009

EAC extraction logfile from 19. June 2012, 0:46

Benediction / Subconscious Terror

Used drive : PLEXTOR DVDR PX-760A Adapter: 1 ID: 0

Read mode : Secure
Utilize accurate stream : Yes
Defeat audio cache : Yes
Make use of C2 pointers : Yes

Read offset correction : 11202
Overread into Lead-In and Lead-Out : Yes
Fill up missing offset samples with silence : Yes
Delete leading and trailing silent blocks : No
Null samples used in CRC calculations : Yes
Used interface : Installed external ASPI interface
Gap handling : Not detected, thus appended to previous track

Used output format : Internal WAV Routines
Sample format : 44.100 Hz; 16 Bit; Stereo


TOC of the extracted CD

Track | Start | Length | Start sector | End sector
---------------------------------------------------------
1 | 0:00.00 | 2:28.62 | 0 | 11161
2 | 2:28.62 | 3:41.73 | 11162 | 27809
3 | 6:10.60 | 3:20.07 | 27810 | 42816
4 | 9:30.67 | 4:01.20 | 42817 | 60911
5 | 13:32.12 | 3:41.50 | 60912 | 77536
6 | 17:13.62 | 3:40.13 | 77537 | 94049
7 | 20:54.00 | 3:36.35 | 94050 | 110284
8 | 24:30.35 | 4:58.05 | 110285 | 132639
9 | 29:28.40 | 4:44.50 | 132640 | 153989
10 | 34:13.15 | 3:54.00 | 153990 | 171539


Track 10

Filename P:\FLAC\10. Confess All Goodness.wav

Peak level 100.0 %
Track quality 100.0 %
Copy CRC 9BBDB493
Copy OK

No errors occurred

End of status report

cue
REM GENRE "Death Metal"
REM DATE 1990
REM DISCID 6F08EF0A
REM COMMENT "ExactAudioCopy v0.99pb5"
REM COMMENT "Tracks 1 and 2 are not aligned."
REM COMMENT "The rest of the tracks are aligned and most of them are altered. Indexes adjusted accordingly."
REM COMMENT "The pregaps for tracks 3 through 10 used to be exactly 1 second before I adjusted them."
PERFORMER "Benediction"
TITLE "Subconscious Terror"
FILE "01. Intro - Portal To Your Phobias.wav" WAVE
TRACK 01 AUDIO
TITLE "Intro - Portal To Your Phobias"
PERFORMER "Benediction"
INDEX 01 00:00:00
FILE "02. Subconscious Terror.wav" WAVE
TRACK 02 AUDIO
TITLE "Subconscious Terror"
PERFORMER "Benediction"
INDEX 01 00:00:00
FILE "03. Artefacted Irreligion.wav" WAVE
TRACK 03 AUDIO
TITLE "Artefacted Irreligion"
PERFORMER "Benediction"
INDEX 00 00:00:00
INDEX 01 00:01:01
FILE "04. Grizzled Finale.wav" WAVE
TRACK 04 AUDIO
TITLE "Grizzled Finale"
PERFORMER "Benediction"
INDEX 00 00:00:00
INDEX 01 00:01:04
FILE "05. Eternal Eclipse.wav" WAVE
TRACK 05 AUDIO
TITLE "Eternal Eclipse"
PERFORMER "Benediction"
INDEX 00 00:00:00
INDEX 01 00:01:02
FILE "06. Experimental Stage.wav" WAVE
TRACK 06 AUDIO
TITLE "Experimental Stage"
PERFORMER "Benediction"
INDEX 00 00:00:00
INDEX 01 00:01:01
FILE "07. Suspended Animation.wav" WAVE
TRACK 07 AUDIO
TITLE "Suspended Animation"
PERFORMER "Benediction"
INDEX 00 00:00:00
INDEX 01 00:01:02
FILE "08. Divine Ultimatum.wav" WAVE
TRACK 08 AUDIO
TITLE "Divine Ultimatum"
PERFORMER "Benediction"
INDEX 00 00:00:00
INDEX 01 00:01:02
FILE "09. Spit Forth The Dead.wav" WAVE
TRACK 09 AUDIO
TITLE "Spit Forth The Dead"
PERFORMER "Benediction"
INDEX 00 00:00:00
INDEX 01 00:01:02
FILE "10. Confess All Goodness.wav" WAVE
TRACK 10 AUDIO
TITLE "Confess All Goodness"
PERFORMER "Benediction"
INDEX 00 00:00:00
INDEX 01 00:01:00

spectrum
Image

_________________
Death rules! Metal to all who oppose!


Top
 Profile  
 
 
PostPosted: 05 Jul 2012 
Хиппей (support team)
User avatar
Joined: 30 Jul 2007
Posts: 108919
Lоcаtion: Киев (Kyiv, UA)
Age: 45
Name: Andrey
:thanx:

mirror: MultiUp l Narod

Неформат, пошёл, хоть и классика жанра.
Явно позже куда-то перенесу топег.

_________________


Top
 Profile E-mail  
 
 
PostPosted: 22 Aug 2012 
Персональный статус
User avatar
Joined: 11 May 2011
Posts: 418
Lоcаtion: Omsk
Age: 28
Name: Alexander
:kz:

_________________
Enigma, unholy, ungodly, commander of the regeneration
Insidious and caught, implored by disgrace
Inhumation... The burial of man
Confession... Unify all evil


Top
 Profile E-mail  
 
 
PostPosted: 22 Aug 2012 
5cm
User avatar
Joined: 30 Jul 2012
Posts: 52
Lоcаtion: крым евпатория
Age: 44
Name: владимир
Scatterbrain wrote:
Неформат, пошёл, хоть и классика жанра.Явно позже куда-то перенесу топег.

Андрей а почему неформат, для меня если честно очень даже про меня, мне если честно, не в обиду будет сказано всем форумчанам, не совсем нравится выкладываемый репертуарчик, какие то древние HARD & HEAVY командочки, повторю без обид было сказано. Вот THRASH & DEATH, Progressive Metal это да.
Одна из самых любимых мной команд, кстати что то их не слышно. Леонид это ваш собственный рип или скачан откуда то?


Top
 Profile E-mail  
 
 
PostPosted: 26 Aug 2012 
5-speed satisfactor
User avatar
Joined: 16 Feb 2009
Posts: 3633
Lоcаtion: New York, USA
Age: 40
Name: Leonid
Мой.

_________________
Death rules! Metal to all who oppose!


Top
 Profile  
 
 
PostPosted: 27 Aug 2012 
5cm
User avatar
Joined: 30 Jul 2012
Posts: 52
Lоcаtion: крым евпатория
Age: 44
Name: владимир
metaleonid wrote:
Мой.

В таком случае, спасибо большое :thanx: Это моя одна из самых любимых команд. Лёнь а есть ещё что не будь, как говорит Андрей "не формат", какие не будь старые дезэвые, трэш команды?


Top
 Profile E-mail  
 
 
PostPosted: 27 Aug 2012 
Доктор энтомологии
User avatar
Joined: 22 Jan 2009
Posts: 9486
Lоcаtion: Даугавпилс
Age: 43
Name: Алексей
metaleonid wrote:
Мой.

трэш команды?


трэш команды тут - формат :dance:
п.с. (бегущая строчка сверьху)
Quote:
Only Oldschool Metal requests are allowed - Hard Rock(AOR,)/Heavy Metal/Thrash/Hardcore/ProgMetal ***** Don't request any alternative/modern stuff here Alternative/Modern/Pop/Grind/Death/Black/Industrial etc.


Top
 Profile  
 
 
PostPosted: 29 Aug 2012 
5-speed satisfactor
User avatar
Joined: 16 Feb 2009
Posts: 3633
Lоcаtion: New York, USA
Age: 40
Name: Leonid
metaleonid wrote:
Мой.

В таком случае, спасибо большое :thanx: Это моя одна из самых любимых команд. Лёнь а есть ещё что не будь, как говорит Андрей "не формат", какие не будь старые дезэвые, трэш команды?



Во первых, я Андрею Санычу послал кучу ссылок. Если у тебя время на оформление, возьми у него ссылки, запость сюда и оформи.

Во вторых по мере продавания своих первопрессов, буду их сюда выкладывать.

Там в основном thrash и classic death metal.

_________________
Death rules! Metal to all who oppose!


Top
 Profile  
 
 
PostPosted: 02 Sep 2012 
Хиппей (support team)
User avatar
Joined: 30 Jul 2007
Posts: 108919
Lоcаtion: Киев (Kyiv, UA)
Age: 45
Name: Andrey
metaleonid wrote:
послал кучу ссылок

:thanx: Принято :arrow: viewtopic.php?f=172&t=10964 :nofuck:

_________________


Top
 Profile E-mail  
 
Display posts from previous:  Sort by  
Post new topic Reply to topic  [ 9 posts ] 

All times are UTC + 3 hours


Who is online

Users browsing this forum: No registered users and 1 guest


You cannot post new topics in this forum
You cannot reply to topics in this forum
You cannot edit your posts in this forum
You cannot delete your posts in this forum
You cannot post attachments in this forum

Search for:
Яндекс.Метрика
Powered by phpBB © 2000, 2002, 2005, 2007 phpBB Group