\m/ 80's metal \m/

Информационно-аналитический форум "80 см пыли" (In Search We Trust) "У нас никто никуда не спешит"
Me For You - http://me-4u.com
It is currently 19 Dec 2018

All times are UTC + 3 hours

Spoiler
Chat - temporary registration for foreign users (please leave your application here)







Post new topic Reply to topic  [ 17 posts ] 
Author Message
 
PostPosted: 29 Feb 2012 
Пионэръ
Joined: 11 Sep 2011
Posts: 22
Lоcаtion: Serbia
Name: Djuradj
Приветствую всех вас!

http://www.metal-archives.com/band/view/id/655

Мне нужны следующие альбомы

Believer "Extraction From Mortality" (1989)

"Sanity Obscure" (1990)

"Dimensions" (1993)

Flac OR ape ...

Большое спасибо!


Top
 Profile E-mail  
 
 
PostPosted: 29 Feb 2012 
Хиппей (support team)
User avatar
Joined: 30 Jul 2007
Posts: 109025
Lоcаtion: Киев (Kyiv, UA)
Age: 45
Name: Andrey
! ЗАМЕЧАНИЕ МОДЕРАТОРА/MODERATOR NOTE
Hi Djuradj :hi:

Настоятельная просьба переделать запрос по Правилам :arrow: viewforum.php?f=205 :cow:

И желательно впредь размещать запросы на Losless в соответствующий раздел форума.

Удачи.

_________________


Top
 Profile E-mail  
 
 
PostPosted: 29 Feb 2012 
Хиппей (support team)
User avatar
Joined: 30 Jul 2007
Posts: 109025
Lоcаtion: Киев (Kyiv, UA)
Age: 45
Name: Andrey
И... ты это считаешь редкими альбомами? :vic: http://rutracker.org/forum/viewtopic.php?t=2982891 :begun:

_________________


Top
 Profile E-mail  
 
 
PostPosted: 02 Mar 2012 
Пионэръ
Joined: 11 Sep 2011
Posts: 22
Lоcаtion: Serbia
Name: Djuradj
Но есть только 1 seed...


Top
 Profile E-mail  
 
 
PostPosted: 02 Mar 2012 
Хиппей (support team)
User avatar
Joined: 30 Jul 2007
Posts: 109025
Lоcаtion: Киев (Kyiv, UA)
Age: 45
Name: Andrey
Но ведь он есть :dance:

_________________


Top
 Profile E-mail  
 
 
PostPosted: 02 Mar 2012 
Хиппей (support team)
User avatar
Joined: 30 Jul 2007
Posts: 109025
Lоcаtion: Киев (Kyiv, UA)
Age: 45
Name: Andrey
Believer - 1989 - Extraction From Mortality (2007 reissue) [flac]

Image
Image

Genre: Speed Techno Thrash
Location: USA
Format: flac + cue + log + scans
Size: 320 Mb


Line-up:

Kurt Bachman - vocals, guitars
Joey Daub - drums
Howe Kraft - bass
Dave Baddorf - guitars

    1. Unite - 06:45
    2. Vile Hypocrisy - 05:36
    3. D.O.S. (Desolation of Sodom) - 04:22
    4. Tormented - 03:52
    5. Shadow of Death - 04:21
    6. Blemished Sacrifices - 03:58
    7. Not Even One - 03:38
    8. Extraction from Mortality - 06:04
    9. Stress - 03:03

    TPT: 41:39

Speedy l Narod

log
EAC extraction logfile from 9. June 2008, 16:10 for CD
Believer / Extraction From Mortality (2007)

Used drive : _NEC DVD_RW ND-3500AG Adapter: 0 ID: 2
Read mode : Secure with NO C2, accurate stream, disable cache
Read offset correction : 48
Overread into Lead-In and Lead-Out : No

Used output format : Internal WAV Routines
44.100 Hz; 16 Bit; Stereo

Other options :
Fill up missing offset samples with silence : Yes
Delete leading and trailing silent blocks : No
Installed external ASPI interface


Range status and errors
Selected range
Filename E:\spiralarch\Believer - Extraction From Mortality (2007).wav

Peak level 98.4 %
Range quality 100.0 %
CRC CB684739
Copy OK

No errors occured

End of status report


cue
REM GENRE "Thrash Metal"
REM DATE 1989
REM DISCID 6209C609
REM COMMENT "ExactAudioCopy v0.95b4"
PERFORMER "Believer"
TITLE "Extraction From Mortality (2007)"
FILE "Believer - Extraction From Mortality (2007).flac" WAVE
TRACK 01 AUDIO
TITLE "Unite"
PERFORMER "Believer"
INDEX 01 00:00:00
TRACK 02 AUDIO
TITLE "Vile Hypocrisy"
PERFORMER "Believer"
INDEX 01 06:41:69
TRACK 03 AUDIO
TITLE "D.O.S. (Desolation Of Sodom)"
PERFORMER "Believer"
INDEX 01 12:18:64
TRACK 04 AUDIO
TITLE "Tormented"
PERFORMER "Believer"
INDEX 01 16:40:71
TRACK 05 AUDIO
TITLE "Shadow Of Death"
PERFORMER "Believer"
INDEX 01 20:33:66
TRACK 06 AUDIO
TITLE "Blemished Sacrifices"
PERFORMER "Believer"
INDEX 01 24:55:29
TRACK 07 AUDIO
TITLE "Not Even One"
PERFORMER "Believer"
INDEX 01 28:53:54
TRACK 08 AUDIO
TITLE "Extraction From Mortality"
PERFORMER "Believer"
INDEX 01 32:32:14
TRACK 09 AUDIO
TITLE "Stress"
PERFORMER "Believer"
INDEX 01 38:39:36

_________________


Top
 Profile E-mail  
 
 
PostPosted: 02 Mar 2012 
Прокъмитолист
User avatar
Joined: 12 Aug 2007
Posts: 6515
Lоcаtion: Санктъ-Петербуркъ
Age: 51
Name: Олекъ
Андрюха, ты весь Believer с рутрекера будешь качать? там вощемта мои рипы все кроме одного, если нужна помощь - свистни ;)

_________________
прокъметол - это музыко, от которово есть прок (ы)


Top
 Profile  
 
 
PostPosted: 02 Mar 2012 
Хиппей (support team)
User avatar
Joined: 30 Jul 2007
Posts: 109025
Lоcаtion: Киев (Kyiv, UA)
Age: 45
Name: Andrey
Олежка, спасибо, я твои давно замутил и уже распродал :crazy:
Остальные скачал заново за 15 минут. Так что товарищ из Сербии жутко неправ :fingal:

Believer - 1990 - Sanity Obscure [flac]

Image
Image

Genre: Speed Techno Thrash
Location: USA
Format: flac + cue + log + scans
Size: 270 Mb


Line-up:

Joey Daub - drums
Kurt Bachman - vocals, guitars
Wyatt Robertson - bass
Dave Baddorf - guitars

    1. Sanity Obscure - 06:11
    2. Wisdom's Call - 03:46
    3. Nonpoint - 05:22
    4. Idols of Ignorance - 04:44
    5. Stop the Madness - 05:03
    6. Dies Irae (Day of Wrath) - 05:49
    7. Dust to Dust - 05:02
    8. Like a Song (U2 cover) - 03:23

    TPT: 39:20


Speedy l Narod

log
EAC extraction logfile from 13. October 2005, 20:16 for CD
Believer / Sanity Obscure

Used drive : PLEXTOR DVDR PX-716A Adapter: 4 ID: 0
Read mode : Secure with NO C2, accurate stream, disable cache
Read offset correction : 30
Overread into Lead-In and Lead-Out : No

Used output format : C:\Programmi\Monkey's Audio\MAC.exe (Monkey's Audio Lossless Encoder)
High Lossless Compression

Other options :
Fill up missing offset samples with silence : Yes
Delete leading and trailing silent blocks : No
Installed external ASPI interface


Range status and errors
Selected range
Filename F:\Metalmadness\BELIEVER\Sanity obscure.wav

Peak level 89.1 %
Range quality 100.0 %
CRC F5F4A987
Copy OK

No errors occured

End of status report


cue
PERFORMER "Believer"
TITLE "Sanity Obscure"
FILE "Sanity obscure.flac" WAVE
TRACK 01 AUDIO
TITLE "Sanity Obscure"
PERFORMER "Believer"
INDEX 01 00:00:00
TRACK 02 AUDIO
TITLE "Wisdom's Call"
PERFORMER "Believer"
INDEX 00 06:09:34
INDEX 01 06:11:62
TRACK 03 AUDIO
TITLE "Nonpoint"
PERFORMER "Believer"
INDEX 00 09:56:34
INDEX 01 09:58:15
TRACK 04 AUDIO
TITLE "Idols of Ignorance"
PERFORMER "Believer"
INDEX 00 15:18:25
INDEX 01 15:20:27
TRACK 05 AUDIO
TITLE "Stop the Madness"
PERFORMER "Believer"
INDEX 00 20:03:29
INDEX 01 20:06:07
TRACK 06 AUDIO
TITLE "Dies Irae (Day of Wrath)"
PERFORMER "Believer"
INDEX 00 25:07:72
INDEX 01 25:10:67
TRACK 07 AUDIO
TITLE "Dust to Dust"
PERFORMER "Believer"
INDEX 00 30:58:18
INDEX 01 31:00:35
TRACK 08 AUDIO
TITLE "Like a Song"
PERFORMER "Believer"
INDEX 00 36:01:53
INDEX 01 36:02:70

_________________


Top
 Profile E-mail  
 
 
PostPosted: 02 Mar 2012 
Хиппей (support team)
User avatar
Joined: 30 Jul 2007
Posts: 109025
Lоcаtion: Киев (Kyiv, UA)
Age: 45
Name: Andrey
Believer - 1993 - Dimensions [flac]

Image
Image

Genre: Speed Prog Thrash
Location: USA
Format: flac + cue + log + scans
Size: 384 Mb


Line-up:

Kurt Bachman - vocals, guitars
Joey Daub - drums
Jim Winters - bass, guitars
Scott Laird - violin, viola
Glenn Fischbach - cello
Julianne Laird - vocals (soprano)

    1. Gone - 05:47
    2. Future Mind - 05:36
    3. Dimentia - 05:38
    4. What Is But Cannot Not Be - 05:30
    5. Singularity - 04:24
    6. No Apology - 04:58
    7. Trilogy of Knowledge - Intro: The Birth - 02:17
    8. Trilogy of Knowledge - Movement I: The Lie - 05:25
    9. Trilogy of Knowledge - Movement II: The Truth - 06:48
    10. Trilogy of Knowledge - Movement III: The Key - 06:19

    TPT: 52:42

Speedy l Narod

log
EAC extraction logfile from 10. March 2009, 13:51 for CD
Believer / Dimensions

Used drive : _NEC DVD_RW ND-3500AG Adapter: 0 ID: 2
Read mode : Secure with NO C2, accurate stream, disable cache
Read offset correction : 48
Overread into Lead-In and Lead-Out : No

Used output format : Internal WAV Routines
44.100 Hz; 16 Bit; Stereo

Other options :
Fill up missing offset samples with silence : Yes
Delete leading and trailing silent blocks : No
Installed external ASPI interface


Range status and errors
Selected range
Filename E:\spiralarch\Believer - Dimensions.wav

Peak level 95.5 %
Range quality 100.0 %
CRC 4CA81D5E
Copy OK

No errors occured

End of status report


cue
REM GENRE "Progressive Thrash Metal"
REM DATE 1993
REM DISCID A10C610B
REM COMMENT "ExactAudioCopy v0.95b4"
PERFORMER "Believer"
TITLE "Dimensions"
FILE "Believer - Dimensions.flac" WAVE
TRACK 01 AUDIO
TITLE "Gone"
PERFORMER "Believer"
INDEX 01 00:00:00
TRACK 02 AUDIO
TITLE "Future Mind"
PERFORMER "Believer"
INDEX 01 05:47:60
TRACK 03 AUDIO
TITLE "Dimentia"
PERFORMER "Believer"
INDEX 00 11:23:15
INDEX 01 11:24:05
TRACK 04 AUDIO
TITLE "What Is But Cannot Not Be"
PERFORMER "Believer"
INDEX 00 17:01:10
INDEX 01 17:02:00
TRACK 05 AUDIO
TITLE "Singularity"
PERFORMER "Believer"
INDEX 01 22:31:70
TRACK 06 AUDIO
TITLE "No Apology"
PERFORMER "Believer"
INDEX 01 26:56:10
TRACK 07 AUDIO
TITLE "Trilogy Of Knowledge - Intro: The Birth"
PERFORMER "Believer"
INDEX 00 31:53:17
INDEX 01 31:54:37
TRACK 08 AUDIO
TITLE "Trilogy Of Knowledge - Movement I: The Lie"
PERFORMER "Believer"
INDEX 01 34:11:70
TRACK 09 AUDIO
TITLE "Trilogy Of Knowledge - Movement II: The Truth"
PERFORMER "Believer"
INDEX 01 39:37:17
TRACK 10 AUDIO
TITLE "Trilogy Of Knowledge - Movement III: The Key"
PERFORMER "Believer"
INDEX 01 46:25:65
TRACK 11 AUDIO
TITLE "unlisted track"
PERFORMER "Believer"
INDEX 01 52:44:72


spectrum
Image

_________________


Top
 Profile E-mail  
 
 
PostPosted: 03 Mar 2012 
Пионэръ
Joined: 11 Sep 2011
Posts: 22
Lоcаtion: Serbia
Name: Djuradj
Большое спасибо за rutorrents link.
Был один seeder, но один большой seeder.. Я загружал все.


Top
 Profile E-mail  
 
 
PostPosted: 03 Mar 2012 
Хиппей (support team)
User avatar
Joined: 30 Jul 2007
Posts: 109025
Lоcаtion: Киев (Kyiv, UA)
Age: 45
Name: Andrey
RIA77 wrote:
но один большой seeder..

:drink:

_________________


Top
 Profile E-mail  
 
 
PostPosted: 03 Mar 2012 
ТрэшЭрос
User avatar
Joined: 18 Jul 2011
Posts: 2300
Lоcаtion: Гулькевичи
Age: 43
Name: Александр
Scatterbrain, big thanks за альбомчег "Sanity Obscure" и "Dimensions" тож :thanx:
:true: :true: :true:

_________________
Thrash no trash!!!


Top
 Profile E-mail  
 
 
PostPosted: 03 Mar 2012 
Хиппей (support team)
User avatar
Joined: 30 Jul 2007
Posts: 109025
Lоcаtion: Киев (Kyiv, UA)
Age: 45
Name: Andrey
Все спасибки Олегу и собирателю дискографии с торрента. Сорри, имени не знаю :oops:

_________________


Top
 Profile E-mail  
 
 
PostPosted: 03 Mar 2012 
Хиппей (support team)
User avatar
Joined: 30 Jul 2007
Posts: 109025
Lоcаtion: Киев (Kyiv, UA)
Age: 45
Name: Andrey
Да, надеюсь, остальные альбомы сами найдете?
А то мне уже 93-й не нравился из-за неприемлимого для моих нестандартных ушей саунда :fingal:

_________________


Top
 Profile E-mail  
 
 
PostPosted: 04 Mar 2012 
ТрэшЭрос
User avatar
Joined: 18 Jul 2011
Posts: 2300
Lоcаtion: Гулькевичи
Age: 43
Name: Александр
Scatterbrain wrote:
Да, надеюсь, остальные альбомы сами найдете?


Я собрал все 5 полноформатников :dance: Демо и сингл не хочу... :nea: Видео некогда :shok:

_________________
Thrash no trash!!!


Top
 Profile E-mail  
 
 
PostPosted: 05 Mar 2012 
А может смените мне статус?..
User avatar
Joined: 24 Dec 2008
Posts: 622
Age: 44
Name: Дмитрий
Ознакомлюсь, пожалуй. Не знаю такой группы...
Спасибо!


Top
 Profile  
 
 
PostPosted: 13 Mar 2012 
Хиппей (support team)
User avatar
Joined: 30 Jul 2007
Posts: 109025
Lоcаtion: Киев (Kyiv, UA)
Age: 45
Name: Andrey
Rager wrote:
Не знаю такой группы...

:shok: О как...
Хотя, я вона и Саватаж и еще многих других недавно тож дополз послушать... :oops:
Но, чтобы вообще не знать, это жесть малость :vic:

_________________


Top
 Profile E-mail  
 
Display posts from previous:  Sort by  
Post new topic Reply to topic  [ 17 posts ] 

All times are UTC + 3 hours


Who is online

Users browsing this forum: No registered users and 4 guests


You cannot post new topics in this forum
You cannot reply to topics in this forum
You cannot edit your posts in this forum
You cannot delete your posts in this forum
You cannot post attachments in this forum

Search for:
Яндекс.Метрика
Powered by phpBB © 2000, 2002, 2005, 2007 phpBB Group