\m/ 80's metal \m/

Информационно-аналитический форум "80 см пыли" (In Search We Trust) "У нас никто никуда не спешит"
Me For You - http://me-4u.com
It is currently 23 Oct 2018

All times are UTC + 3 hours

Spoiler
Chat - temporary registration for foreign users (please leave your application here)







Post new topic Reply to topic  [ 1 post ] 
Author Message
 
PostPosted: 11 Feb 2012 
Хиппей (support team)
User avatar
Joined: 30 Jul 2007
Posts: 107127
Lоcаtion: Киев (Kyiv, UA)
Age: 45
Name: Andrey
Black Sabbath - 2007 - Live At Hammersmith Odeon - 1982 [ape]

Image

Genre: Hard Rock/Heavy Metal
Location: UK
Format: ape (tracks) + cue + log + scans
Size: 801 Mb


Line-up:

Tony Iommi - guitars
Geezer Butler - bass
Ronnie James Dio (R.I.P. 2010) - vocals
Vinny Appice - drums
Geoff Nicholls - keyboards

    1. E5150 - 01:19
    2. Neon Knights - 04:37
    3. N.I.B. - 05:16
    4. Children of the Sea - 06:07
    5. Country Girl - 03:53
    6. Black Sabbath - 08:24
    7. War Pigs - 07:40
    8. Slipping Away - 03:18
    9. Iron Man - 07:05
    10. Mob Rules - 03:33
    11. Heaven and Hell - 14:24
    12. Paranoid - 03:21
    13. Voodoo - 05:44
    14. Children of the Grave - 05:03

    TPT: 01:19:44

Speedy l Narod

log
Exact Audio Copy V0.99 prebeta 5 from 4. May 2007

Black Sabbath / Live At Hammersmith Odeon

Read mode : Secure
Utilize accurate stream : Yes
Defeat audio cache : Yes
Make use of C2 pointers : Yes

Overread into Lead-In and Lead-Out : Yes
Fill up missing offset samples with silence : Yes
Delete leading and trailing silent blocks : No
Null samples used in CRC calculations : Yes

Used output format : Internal WAV Routines
Sample format : 44.100 Hz; 16 Bit; Stereo


TOC of the extracted CD

Track | Start | Length | Start sector | End sector
---------------------------------------------------------
1 | 0:00.00 | 1:17.67 | 0 | 5841
2 | 1:17.67 | 4:37.49 | 5842 | 26665
3 | 5:55.41 | 5:16.10 | 26666 | 50375
4 | 11:11.51 | 6:07.46 | 50376 | 77946
5 | 17:19.22 | 3:53.11 | 77947 | 95432
6 | 21:12.33 | 8:24.56 | 95433 | 133288
7 | 29:37.14 | 7:40.24 | 133289 | 167812
8 | 37:17.38 | 3:18.47 | 167813 | 182709
9 | 40:36.10 | 7:05.54 | 182710 | 214638
10 | 47:41.64 | 3:33.48 | 214639 | 230661
11 | 51:15.37 | 14:24.45 | 230662 | 295506
12 | 65:40.07 | 3:21.52 | 295507 | 310633
13 | 69:01.59 | 5:44.69 | 310634 | 336502
14 | 74:46.53 | 5:03.49 | 336503 | 359276


Range status and errors

Selected range

Filename Black Sabbath - Live At Hammersmith Odeon.wav

Peak level 99.8 %
Range quality 100.0 %
Copy CRC 01264476
Copy OK

No errors occurred

End of status report


cue
REM GENRE "Heavy Metal"
REM DATE 1982
REM DISCID ******
CATALOG ******
PERFORMER "Black Sabbath"
TITLE "Live At Hammersmith Odeon"
FILE "Black Sabbath - Live At Hammersmith Odeon.wav" WAVE
TRACK 01 AUDIO
TITLE "E5150"
PERFORMER "Black Sabbath"
ISRC USWB10700737
INDEX 01 00:00:00
TRACK 02 AUDIO
TITLE "Neon Knights"
PERFORMER "Black Sabbath"
ISRC USWB10700738
INDEX 01 01:17:67
TRACK 03 AUDIO
TITLE "N.I.B."
PERFORMER "Black Sabbath"
ISRC USWB10700739
INDEX 01 05:55:41
TRACK 04 AUDIO
TITLE "Children Of The Sea"
PERFORMER "Black Sabbath"
ISRC USWB10700740
INDEX 01 11:11:51
TRACK 05 AUDIO
TITLE "Country Girl"
PERFORMER "Black Sabbath"
ISRC USWB10700741
INDEX 01 17:19:22
TRACK 06 AUDIO
TITLE "Black Sabbath"
PERFORMER "Black Sabbath"
ISRC USWB10700742
INDEX 01 21:12:33
TRACK 07 AUDIO
TITLE "War Pigs"
PERFORMER "Black Sabbath"
ISRC USWB10700743
INDEX 01 29:37:14
TRACK 08 AUDIO
TITLE "Slipping Away"
PERFORMER "Black Sabbath"
ISRC USWB10700744
INDEX 01 37:17:38
TRACK 09 AUDIO
TITLE "Iron Man"
PERFORMER "Black Sabbath"
ISRC USWB10700745
INDEX 01 40:36:10
TRACK 10 AUDIO
TITLE "The Mob Rules"
PERFORMER "Black Sabbath"
ISRC USWB10700746
INDEX 01 47:41:64
TRACK 11 AUDIO
TITLE "Heaven And Hell"
PERFORMER "Black Sabbath"
ISRC USWB10700747
INDEX 01 51:15:37
TRACK 12 AUDIO
TITLE "Paranoid"
PERFORMER "Black Sabbath"
ISRC USWB10700748
INDEX 01 65:40:07
TRACK 13 AUDIO
TITLE "Voodoo"
PERFORMER "Black Sabbath"
ISRC USWB10700749
INDEX 01 69:01:59
TRACK 14 AUDIO
TITLE "Children Of The Grave"
PERFORMER "Black Sabbath"
ISRC USWB10700750
INDEX 01 74:46:53


spectrum
Attachment:
spectrum.jpg
spectrum.jpg [ 364.06 KiB | Viewed 103 times ]

_________________


Top
 Profile E-mail  
 
Display posts from previous:  Sort by  
Post new topic Reply to topic  [ 1 post ] 

All times are UTC + 3 hours


Who is online

Users browsing this forum: No registered users and 1 guest


You cannot post new topics in this forum
You cannot reply to topics in this forum
You cannot edit your posts in this forum
You cannot delete your posts in this forum
You cannot post attachments in this forum

Search for:
Яндекс.Метрика
Powered by phpBB © 2000, 2002, 2005, 2007 phpBB Group