\m/ 80's metal \m/

Информационно-аналитический форум "80 см пыли" (In Search We Trust) "У нас никто никуда не спешит"
Me For You - http://me-4u.com
It is currently 17 Oct 2018

All times are UTC + 3 hours

Spoiler
Chat - temporary registration for foreign users (please leave your application here)







Post new topic Reply to topic  [ 3 posts ] 
Author Message
 
PostPosted: 03 Jan 2012 
Хиппей (support team)
User avatar
Joined: 30 Jul 2007
Posts: 106935
Lоcаtion: Киев (Kyiv, UA)
Age: 45
Name: Andrey
Babylon Bombs - 2005 - Cracked Wide Open And Bruised [ape]

Attachment:
front.jpg
front.jpg [ 86.11 KiB | Viewed 124 times ]

Attachment:
back.jpg
back.jpg [ 236.03 KiB | Viewed 124 times ]


Genre: Hard Rock, Glam
Location: Sweden
Format: ape+cue+log
Size: 325 Mb


Band:
Dani - vocals and guitar
Jon - guitar
Mart - bass and vocals
Swaint - drums
Additional Musicians:
The Duke Of Honk - organ and piano
Lasse Karlsson - slide guitar (7)
Fredrik "Ludde" Lundberg - additional vocals
Jens Ivarsson - additional vocals

    1. Let's Roll - 04:07
    2. Superstar - 03:47
    3. Lady Deny - 03:51
    4. Crucify - 04:44
    5. Delirious - 03:31
    6. Get In The Ring - 03:54
    7. Every Dog Has Its Day - 05:25
    8. So Cruel - 04:20
    9. Low,Broke And Pissed - 03:01
    10. Do You Think About Me? - 03:52
    11. Something For Nothing - 03:49

    TPT: 40:38

Источник: WWW

MultiUp l Narod

Альбом вроде хороший, но... местами раздражает модная слиз-панковская мишура в музыке группы :fingal: Хотя команда и взяла за основу хард-рок 70-х...

log
Exact Audio Copy V0.99 prebeta 4 from 23. January 2008

EAC extraction logfile from 25. August 2011, 21:32

Babylon Bombs / Cracked Wide Open And Bruised

Used drive : PIONEER DVD-RW DVR-212 Adapter: 5 ID: 0

Read mode : Secure
Utilize accurate stream : Yes
Defeat audio cache : Yes
Make use of C2 pointers : No

Read offset correction : 48
Overread into Lead-In and Lead-Out : No
Fill up missing offset samples with silence : Yes
Delete leading and trailing silent blocks : No
Null samples used in CRC calculations : Yes
Used interface : Native Win32 interface for Win NT & 2000

Used output format : Internal WAV Routines
Sample format : 44.100 Hz; 16 Bit; Stereo


TOC of the extracted CD

Track | Start | Length | Start sector | End sector
---------------------------------------------------------
1 | 0:00.00 | 4:07.29 | 0 | 18553
2 | 4:07.29 | 3:47.64 | 18554 | 35642
3 | 7:55.18 | 3:51.62 | 35643 | 53029
4 | 11:47.05 | 4:44.41 | 53030 | 74370
5 | 16:31.46 | 3:31.34 | 74371 | 90229
6 | 20:03.05 | 3:54.15 | 90230 | 107794
7 | 23:57.20 | 5:25.67 | 107795 | 132236
8 | 29:23.12 | 4:20.62 | 132237 | 151798
9 | 33:43.74 | 3:01.54 | 151799 | 165427
10 | 36:45.53 | 3:52.60 | 165428 | 182887
11 | 40:38.38 | 3:49.28 | 182888 | 200090


Range status and errors

Selected range

Filename D:\temp\Babylon Bombs - Cracked Wide Open And Bruised.wav

Peak level 98.9 %
Range quality 100.0 %
Copy CRC 44686B5C
Copy OK

No errors occurred


AccurateRip summary

Track 1 accurately ripped (confidence 1) [B682415D]
Track 2 accurately ripped (confidence 1) [D71E990A]
Track 3 accurately ripped (confidence 1) [0CB3676C]
Track 4 accurately ripped (confidence 1) [6C30C2A5]
Track 5 accurately ripped (confidence 1) [53F5181F]
Track 6 accurately ripped (confidence 1) [68F5FF6E]
Track 7 accurately ripped (confidence 1) [1D603D7B]
Track 8 accurately ripped (confidence 1) [8B6E73E9]
Track 9 accurately ripped (confidence 1) [27867234]
Track 10 accurately ripped (confidence 1) [E67F6381]
Track 11 accurately ripped (confidence 1) [7567A57D]

All tracks accurately ripped

End of status report


cue
REM GENRE "Hard Rock"
REM DATE 2005
REM DISCID 920A6B0B
REM COMMENT "ExactAudioCopy v0.99pb4"
PERFORMER "Babylon Bombs"
TITLE "Cracked Wide Open And Bruised"
FILE "Babylon Bombs - Cracked Wide Open And Bruised.ape" WAVE
TRACK 01 AUDIO
TITLE "Let's Roll"
PERFORMER "Babylon Bombs"
ISRC SEBJF0402001
INDEX 01 00:00:00
TRACK 02 AUDIO
TITLE "Superstar"
PERFORMER "Babylon Bombs"
ISRC SEBJF0402002
INDEX 01 04:07:29
TRACK 03 AUDIO
TITLE "Lady Deny"
PERFORMER "Babylon Bombs"
ISRC SEBJF0402003
INDEX 01 07:55:18
TRACK 04 AUDIO
TITLE "Crucify"
PERFORMER "Babylon Bombs"
ISRC SEBJF0402004
INDEX 01 11:47:05
TRACK 05 AUDIO
TITLE "Delirious"
PERFORMER "Babylon Bombs"
ISRC SEBJF0402005
INDEX 01 16:31:46
TRACK 06 AUDIO
TITLE "Get In The Ring"
PERFORMER "Babylon Bombs"
ISRC SEBJF0402006
INDEX 01 20:03:05
TRACK 07 AUDIO
TITLE "Every Dog Has Its Day"
PERFORMER "Babylon Bombs"
ISRC SEBJF0402007
INDEX 01 23:57:20
TRACK 08 AUDIO
TITLE "So Cruel"
PERFORMER "Babylon Bombs"
ISRC SEBJF0402008
INDEX 01 29:23:12
TRACK 09 AUDIO
TITLE "Low,Broke And Pissed"
PERFORMER "Babylon Bombs"
ISRC SEBJF0402009
INDEX 01 33:43:74
TRACK 10 AUDIO
TITLE "Do You Think About Me?"
PERFORMER "Babylon Bombs"
ISRC SEBJF0402010
INDEX 01 36:45:53
TRACK 11 AUDIO
TITLE "Something For Nothing"
PERFORMER "Babylon Bombs"
ISRC SEBJF0402011
INDEX 01 40:38:38


spectrum
Attachment:
spectrum.jpg
spectrum.jpg [ 395.5 KiB | Viewed 108 times ]


phpBB [youtube]

_________________


Top
 Profile E-mail  
 
 
PostPosted: 03 Jan 2012 
Хиппей (support team)
User avatar
Joined: 30 Jul 2007
Posts: 106935
Lоcаtion: Киев (Kyiv, UA)
Age: 45
Name: Andrey
Babylon Bombs - 2009 - Babylon's Burning [ape]

Attachment:
full.jpg
full.jpg [ 795.01 KiB | Viewed 122 times ]


Genre: Hard Rock, Glam
Location: Sweden
Format: ape+cue+log
Size: 382 Mb


Line-up:
Dani - vocals, guitar
Jon - guitar
Swaint - drums
Ricky - bass

    1. Liberation - 03:53
    2. Babylon's Burning - 03:43
    3. Resurrection Love - 03:48
    4. Nobody's Home - 04:30
    5. Angel Eyes - 03:17
    6. It's Alright - 04:56
    7. Anywhere the Wind Blows - 05:26
    8. Winding Road - 04:03
    9. Rattle My Bones - 04:00
    10. Shine On - 04:20
    11. Goodbye Good Luck - 03:36
    12. Fade Away - 04:02

    TPT: 49:40

Source: WWW

Ну вот, этот альбом намного лучше :dance:

6/10

MultiUp l Narod

log
Exact Audio Copy V0.99 prebeta 5 from 4. May 2009

Отчёт EAC об извлечении, выполненном 14. июня 2010, 8:56

Babylon Bombs / Babylon's Burning

Дисковод: HL-DT-STDVD-RAM GSA-E60N Adapter: 6 ID: 0

Режим чтения : Достоверность
Использование точного потока : Да
Отключение кэша аудио : Да
Использование указателей C2 : Нет

Коррекция смещения при чтении : 102
Способность читать области Lead-in и Lead-out : Да
Заполнение пропущенных сэмплов тишиной : Да
Удаление блоков с тишиной в начале и конце : Нет
При вычислениях CRC использовались нулевые сэмплы : Да
Интерфейс : Установленный внешний ASPI-интерфейс

Выходной формат : Monkey's Audio (без потерь)
Выбранный битрейт : High Lossless Compression
Качество : Высокий
Добавление ID3-тэга : Да
Утилита сжатия : C:\Program Files\Monkey's Audio\MAC.exe


TOC извлечённого CD

Трек | Старт | Длительность | Начальный сектор | Конечный сектор
---------------------------------------------------------------------
1 | 0:00.00 | 3:53.46 | 0 | 17520
2 | 3:53.46 | 3:43.62 | 17521 | 34307
3 | 7:37.33 | 3:48.29 | 34308 | 51436
4 | 11:25.62 | 4:30.43 | 51437 | 71729
5 | 15:56.30 | 3:17.39 | 71730 | 86543
6 | 19:13.69 | 4:56.57 | 86544 | 108800
7 | 24:10.51 | 5:26.58 | 108801 | 133308
8 | 29:37.34 | 4:03.68 | 133309 | 151601
9 | 33:41.27 | 4:00.30 | 151602 | 169631
10 | 37:41.57 | 4:20.42 | 169632 | 189173
11 | 42:02.24 | 3:36.05 | 189174 | 205378
12 | 45:38.29 | 4:02.04 | 205379 | 223532


Характеристики диапазона извлечения и сообщения об ошибках

Выбранный диапазон

Имя файла D:\Babylon Bombs - Babylon's Burning.wav

Пиковый уровень 99.8 %
Качество диапазона 100.0 %
CRC копии 960DE20C
Копирование... OK

Ошибок не произошло

Конец отчёта


cue
REM GENRE "Hard Rock"
REM DATE 2009
REM DISCID D796E00A
REM COMMENT "ExactAudioCopy v0.99pb5"
PERFORMER "Babylon Bombs"
TITLE "Babylon's Burning"
FILE "Babylon Bombs - Babylon's Burning.ape" WAVE
TRACK 01 AUDIO
TITLE "Liberation"
PERFORMER "Babylon Bombs"
INDEX 01 00:00:00
TRACK 02 AUDIO
TITLE "Babylon's Burning"
PERFORMER "Babylon Bombs"
INDEX 01 03:53:46
TRACK 03 AUDIO
TITLE "Resurrection Love"
PERFORMER "Babylon Bombs"
INDEX 01 07:37:33
TRACK 04 AUDIO
TITLE "Nobody's Home"
PERFORMER "Babylon Bombs"
INDEX 01 11:25:62
TRACK 05 AUDIO
TITLE "Angel Eyes"
PERFORMER "Babylon Bombs"
INDEX 01 15:56:30
TRACK 06 AUDIO
TITLE " It's Alright"
PERFORMER "Babylon Bombs"
INDEX 01 19:13:69
TRACK 07 AUDIO
TITLE "Anywhere The Wind Blows"
PERFORMER "Babylon Bombs"
INDEX 01 24:10:51
TRACK 08 AUDIO
TITLE "Winding Road"
PERFORMER "Babylon Bombs"
INDEX 01 29:37:34
TRACK 09 AUDIO
TITLE "Rattle My Bones"
PERFORMER "Babylon Bombs"
INDEX 01 33:41:27
TRACK 10 AUDIO
TITLE "Shine On"
PERFORMER "Babylon Bombs"
INDEX 01 37:41:57
TRACK 11 AUDIO
TITLE "Goodbye Good Luck"
PERFORMER "Babylon Bombs"
INDEX 00 42:01:21
INDEX 01 42:02:24
TRACK 12 AUDIO
TITLE "Fade Away"
PERFORMER "Babylon Bombs"
INDEX 01 45:38:29


spectrum
Attachment:
spectrum.jpg
spectrum.jpg [ 387.84 KiB | Viewed 135 times ]

_________________


Top
 Profile E-mail  
 
 
PostPosted: 04 Jan 2012 
Хиппей (support team)
User avatar
Joined: 30 Jul 2007
Posts: 106935
Lоcаtion: Киев (Kyiv, UA)
Age: 45
Name: Andrey
Кстати...

Attachment:
tour.png
tour.png [ 11.09 KiB | Viewed 448 times ]


http://www.myspace.com/babylonbombs/shows

Только я не понял, это они уже выступали там, или только планируют? :vic:

_________________


Top
 Profile E-mail  
 
Display posts from previous:  Sort by  
Post new topic Reply to topic  [ 3 posts ] 

All times are UTC + 3 hours


Who is online

Users browsing this forum: Google [Bot] and 2 guests


You cannot post new topics in this forum
You cannot reply to topics in this forum
You cannot edit your posts in this forum
You cannot delete your posts in this forum
You cannot post attachments in this forum

Search for:
Яндекс.Метрика
Powered by phpBB © 2000, 2002, 2005, 2007 phpBB Group