\m/ 80's metal \m/

Информационно-аналитический форум "80 см пыли" (In Search We Trust) "У нас никто никуда не спешит"
Me For You - http://me-4u.com
It is currently 23 Oct 2018

All times are UTC + 3 hours

Spoiler
Chat - temporary registration for foreign users (please leave your application here)







Post new topic Reply to topic  [ 4 posts ] 
Author Message
 
PostPosted: 29 Dec 2011 
Персональный статус
Joined: 06 Apr 2009
Posts: 376
Lоcаtion: hong kong
Age: 27
Name: andy
Blue Jeans - 1989 - 永远是你好友

Attachment:
front.jpg
front.jpg [ 24.48 KiB | Viewed 500 times ]

Attachment:
cd.jpg
cd.jpg [ 21.63 KiB | Viewed 502 times ]


Tracks:
01.奇遇
02.下雨天
03.永远是你好友
04.无谓客气
05.命运交战曲
06.人到无求
07.不回头
08.自我失踪
09.推销理想
10.大梦想家

Here the link:
http://ifolder.ru/27874726
:dance:
Enjoy

log
Exact Audio Copy V0.99 prebeta 2 from 28. July 2007

EAC ╫е╚б╚╒╓╛╬─╝■┤╙8. ╩о╥╗╘┬ 2010, 18:36

Blue Jeans / ╙└╘╢╩╟─у║├╙╤

╩╣╙├╟¤╢п╞ў г║PHILIPS PCDV5016P1 Adapter: 1 ID: 0

╢┴╚б─г╩╜ : ▒г╗д
╩╣╙├╛л╚╖┴ў : ╩╟
╖╧│¤╥Ї╞╡╗║│х : ╩╟
╩╣╙├ C2 ╓╕╒ы : ╖ё

╢┴╚б╞л╥╞╨г╒¤ : 738
╢┴╚б Lead-In ║═ Lead-Out : ╖ё
╙├╛▓╥Ї╠ю│ф╫е╚б╓╨╢к╩з╞л╥╞╡─▓╔╤∙ : ╩╟
╚е│¤╩╫╬▓╛▓╥Ї┐щ : ╖ё
╘┌ CRC ╝╞╦у╓╨╩╣╙├┴╦┐╒╤∙▒╛ : ╩╟
╥╤╙├╜╙┐┌ : Win NT ╝░ 2000 ▒╛╡╪ Win32 ╜╙┐┌

╦∙╙├╩ф│Ў╕ё╩╜ : ─┌▓┐ WAV ║п╩¤
╤∙▒╛╕ё╩╜ : 44.100 Hz;16 Bit;┴в╠х╔∙


▒╗╫е╣ь CD ╡─ TOC

╥Ї╣ь | ┐к╩╝ | │д╢╚ | ╞Ё╩╝╔╚╟° | ╜с╬▓╔╚╟°
--------------------------------------------------
1 | 0:00.00 | 3:55.35 | 0 | 17659
2 | 3:55.35 | 4:55.27 | 17660 | 39811
3 | 8:50.62 | 4:32.38 | 39812 | 60249
4 | 13:23.25 | 4:06.72 | 60250 | 78771
5 | 17:30.22 | 3:37.08 | 78772 | 95054
6 | 21:07.30 | 4:20.60 | 95055 | 114614
7 | 25:28.15 | 4:23.25 | 114615 | 134364
8 | 29:51.40 | 4:18.10 | 134365 | 153724
9 | 34:09.50 | 4:07.00 | 153725 | 172249
10 | 38:16.50 | 4:01.45 | 172250 | 190369


╖╢╬з╫┤╠м╝░┤э╬є

╥╤╤б╘ё╖╢╬з

╬─╝■├√ D:\╔╧┤л\Blue Jeans-╙└╘╢╩╟─у║├╙╤(╦ў─с░ц) kmman╘н┤┤\Blue Jeans - ╙└╘╢╩╟─у║├╙╤.wav

╖х╓╡╡ч╞╜ 83.2 %
╖╢╬з╓╩┴┐ 100.0 %
╕┤╓╞ CRC 868037D5
╕┤╓╞│╔╣ж

├╗╙╨┤э╬є╖в╔·


AccurateRip ╕┼╥к

╥Ї╣ь 1 ╥╤╒¤╚╖╫е╚б (╚╖╚╧ 1) [DE51F17B]
╥Ї╣ь 2 ╥╤╒¤╚╖╫е╚б (╚╖╚╧ 1) [DDBBBBB6]
╥Ї╣ь 3 ╥╤╒¤╚╖╫е╚б (╚╖╚╧ 1) [751825E4]
╥Ї╣ь 4 ╥╤╒¤╚╖╫е╚б (╚╖╚╧ 1) [06233EE8]
╥Ї╣ь 5 ╥╤╒¤╚╖╫е╚б (╚╖╚╧ 1) [E106F309]
╥Ї╣ь 6 ╥╤╒¤╚╖╫е╚б (╚╖╚╧ 1) [FF1804C2]
╥Ї╣ь 7 ╥╤╒¤╚╖╫е╚б (╚╖╚╧ 1) [94EABC63]
╥Ї╣ь 8 ╥╤╒¤╚╖╫е╚б (╚╖╚╧ 1) [66DA9ACB]
╥Ї╣ь 9 ╥╤╒¤╚╖╫е╚б (╚╖╚╧ 1) [1073B6EA]
╥Ї╣ь 10 ╬▐╖и╛л╚╖╨г╤щ (╚╖╚╧ 1) [2BCE7B5F], AccurateRip ╖╡╗╪ [51BF7B5F]

9 ╥Ї╣ь╥╤▒╗╛л╚╖╫е╚б
1 ╥Ї╣ь╨г╤щ▓╗╫╝╚╖

─│╨й╥Ї╣ь╬▐╖и▒╗╛л╚╖╤щ╓д

╫┤╠м▒и╕ц╜с╬▓


cue
REM DISCID 7909EA0A
REM COMMENT "ExactAudioCopy v0.99pb2"
PERFORMER "Blue Jeans"
TITLE "╙└╘╢╩╟─у║├╙╤"
FILE "Blue Jeans - ╙└╘╢╩╟─у║├╙╤.ape" WAVE
TRACK 01 AUDIO
TITLE "╞ц╙Ў"
PERFORMER "Blue Jeans"
INDEX 01 00:00:00
TRACK 02 AUDIO
TITLE "╧┬╙ъ╠ь"
PERFORMER "Blue Jeans"
INDEX 00 03:53:50
INDEX 01 03:55:35
TRACK 03 AUDIO
TITLE "╙└╘╢╩╟─у║├╙╤"
PERFORMER "Blue Jeans"
INDEX 00 08:48:30
INDEX 01 08:50:62
TRACK 04 AUDIO
TITLE "╬▐╬╜┐═╞°"
PERFORMER "Blue Jeans"
INDEX 00 13:20:62
INDEX 01 13:23:25
TRACK 05 AUDIO
TITLE "├№╘╦╜╗╒╜╟·"
PERFORMER "Blue Jeans"
INDEX 00 17:28:02
INDEX 01 17:30:22
TRACK 06 AUDIO
TITLE "╚╦╡╜╬▐╟є"
PERFORMER "Blue Jeans"
INDEX 00 21:05:12
INDEX 01 21:07:30
TRACK 07 AUDIO
TITLE "▓╗╗╪═╖"
PERFORMER "Blue Jeans"
INDEX 00 25:26:00
INDEX 01 25:28:15
TRACK 08 AUDIO
TITLE "╫╘╬╥╩з╫┘"
PERFORMER "Blue Jeans"
INDEX 00 29:48:65
INDEX 01 29:51:40
TRACK 09 AUDIO
TITLE "═╞╧·└э╧ы"
PERFORMER "Blue Jeans"
INDEX 00 34:07:60
INDEX 01 34:09:50
TRACK 10 AUDIO
TITLE "┤є├╬╧ы╝╥"
PERFORMER "Blue Jeans"
INDEX 00 38:13:35
INDEX 01 38:16:50

_________________
LOVE ROCK


Top
 Profile  
 
 
PostPosted: 29 Dec 2011 
хард н хэвщик (support team)
User avatar
Joined: 02 Jun 2008
Posts: 16880
Lоcаtion: Н.Новгород
Age: 31
Name: Артем
И сюда спасибо! :true: :true:


Top
 Profile  
 
 
PostPosted: 29 Dec 2011 
Хиппей (support team)
User avatar
Joined: 30 Jul 2007
Posts: 107127
Lоcаtion: Киев (Kyiv, UA)
Age: 45
Name: Andrey
Андрюха, спасибо! :thanx:

mirror: MultiUp l Narod

_________________


Top
 Profile E-mail  
 
 
PostPosted: 30 Dec 2011 
Хиппей (support team)
User avatar
Joined: 30 Jul 2007
Posts: 107127
Lоcаtion: Киев (Kyiv, UA)
Age: 45
Name: Andrey
Так... кажись я таки запутался в альбомах и перелил не тот... :starz:

_________________


Top
 Profile E-mail  
 
Display posts from previous:  Sort by  
Post new topic Reply to topic  [ 4 posts ] 

All times are UTC + 3 hours


Who is online

Users browsing this forum: No registered users and 1 guest


You cannot post new topics in this forum
You cannot reply to topics in this forum
You cannot edit your posts in this forum
You cannot delete your posts in this forum
You cannot post attachments in this forum

Search for:
Яндекс.Метрика
Powered by phpBB © 2000, 2002, 2005, 2007 phpBB Group