\m/ 80's metal \m/

Информационно-аналитический форум "80 см пыли" (In Search We Trust) "У нас никто никуда не спешит"
Me For You - http://me-4u.com
It is currently 12 Dec 2018

All times are UTC + 3 hours

Spoiler
Chat - temporary registration for foreign users (please leave your application here)







Post new topic Reply to topic  [ 11 posts ] 
Author Message
 
PostPosted: 28 Dec 2011 
Персональный статус
Joined: 06 Apr 2009
Posts: 376
Lоcаtion: hong kong
Age: 28
Name: andy
Attachment:
cover.jpg
cover.jpg [ 1.21 MiB | Viewed 146 times ]


Blue Jeans - 1990 - Blue Jeans 【Australian Version】
01.也许明日再遇上
02.这地球
03.天气报告
04.真相
05.疯想
06.灵犀一点
07.停电午夜
08.火种
09.凭着勇敢
10.无聊时候

Here the link:
http://ifolder.ru/27865738

Enjoy :dance:

And the other album will post soon

_________________
LOVE ROCK


Top
 Profile  
 
 
PostPosted: 28 Dec 2011 
хард н хэвщик (support team)
User avatar
Joined: 02 Jun 2008
Posts: 16880
Lоcаtion: Н.Новгород
Age: 31
Name: Артем
wow! thankd you Andy! :true:
I just want tell you - you can choose any file hosting storage , noy only ifodler.ru : multiupload.com , megaupload.com
You can use any site what you want


Top
 Profile  
 
 
PostPosted: 28 Dec 2011 
хард н хэвщик (support team)
User avatar
Joined: 02 Jun 2008
Posts: 16880
Lоcаtion: Н.Новгород
Age: 31
Name: Артем
на всякий случай лог: :umnik:
log
Exact Audio Copy V0.99 prebeta 2 from 28. July 2007

EAC 抓取日志文件从8. 十一月 2010, 0:12

Blue Jeans / 同名专辑

使用驱动器 :PHILIPS PCDV5016P1 Adapter: 1 ID: 0

读取模式 : 保护
使用精确流 : 是
废除音频缓冲 : 是
使用 C2 指针 : 否

读取偏移校正 : 738
读取 Lead-In 和 Lead-Out : 否
用静音填充抓取中丢失偏移的采样 : 是
去除首尾静音块 : 否
在 CRC 计算中使用了空样本 : 是
已用接口 : Win NT 及 2000 本地 Win32 接口

所用输出格式 : 内部 WAV 函数
样本格式 : 44.100 Hz;16 Bit;立体声


被抓轨 CD 的 TOC

音轨 | 开始 | 长度 | 起始扇区 | 结尾扇区
--------------------------------------------------
1 | 0:00.00 | 4:04.25 | 0 | 18324
2 | 4:04.25 | 4:59.62 | 18325 | 40811
3 | 9:04.12 | 4:51.00 | 40812 | 62636
4 | 13:55.12 | 4:35.00 | 62637 | 83261
5 | 18:30.12 | 4:41.08 | 83262 | 104344
6 | 23:11.20 | 3:43.55 | 104345 | 121124
7 | 26:55.00 | 4:01.05 | 121125 | 139204
8 | 30:56.05 | 6:22.25 | 139205 | 167879
9 | 37:18.30 | 3:36.57 | 167880 | 184136
10 | 40:55.12 | 4:59.38 | 184137 | 206599


范围状态及错误

已选择范围

文件名 D:\上传\Blue Jeans-同名专辑(澳洲版) kmman原创\Blue Jeans - 同名专辑.wav

峰值电平 100.0 %
范围质量 100.0 %
复制 CRC C37120CF
复制成功

没有错误发生


AccurateRip 概要

音轨 1 数据库中未见
音轨 2 数据库中未见
音轨 3 数据库中未见
音轨 4 数据库中未见
音轨 5 数据库中未见
音轨 6 数据库中未见
音轨 7 数据库中未见
音轨 8 数据库中未见
音轨 9 数据库中未见
音轨 10 数据库中未见

没有任何音轨出现在 AccurateRip 数据库中

状态报告结尾


Top
 Profile  
 
 
PostPosted: 28 Dec 2011 
Хиппей (support team)
User avatar
Joined: 30 Jul 2007
Posts: 108837
Lоcаtion: Киев (Kyiv, UA)
Age: 45
Name: Andrey
Thanx Andy! :thanx:

mirror: MultiUp l Narod

_________________


Top
 Profile E-mail  
 
 
PostPosted: 29 Dec 2011 
Персональный статус
Joined: 06 Apr 2009
Posts: 376
Lоcаtion: hong kong
Age: 28
Name: andy
McKagan wrote:
wow! thankd you Andy! :true:
I just want tell you - you can choose any file hosting storage , noy only ifodler.ru : multiupload.com , megaupload.com
You can use any site what you want


Really??? I consider that you can't visit our hosting storage,so i upload to ifodler.. :fingal:
If you don't sure,,you can use this site,let's try..here is a example link: http://115.com/file/clq4tahk
Click"电信下载"or"联通下载" try to download.....if it work..I upload here next time,,convenient me to share
Sorry friend..because foreign site it's too slow to me,i have uploaded almost one day and till now still uploading :cry:

_________________
LOVE ROCK


Top
 Profile  
 
 
PostPosted: 29 Dec 2011 
Персональный статус
User avatar
Joined: 22 Oct 2011
Posts: 352
Lоcаtion: Moscow
Age: 60
Name: Серёжа
Фигасе экзотика. Поставьте оценочку, кто послушал..


Top
 Profile E-mail  
 
 
PostPosted: 29 Dec 2011 
хард н хэвщик (support team)
User avatar
Joined: 02 Jun 2008
Posts: 16880
Lоcаtion: Н.Новгород
Age: 31
Name: Артем
under21 wrote:

yes, i can download from this place. A speed about 1 megabit/sec :dance: well, at this moment you may upload to this chinese site, and after i will reupload to another stable file service (multiupload.com)


Top
 Profile  
 
 
PostPosted: 29 Dec 2011 
хард н хэвщик (support team)
User avatar
Joined: 02 Jun 2008
Posts: 16880
Lоcаtion: Н.Новгород
Age: 31
Name: Артем
sorog wrote:
Фигасе экзотика. Поставьте оценочку, кто послушал..

Cерег, это явно вне твоих музыкальных вкусов. Здесь музыка балансирует на грани Pop/AOR


Top
 Profile  
 
 
PostPosted: 29 Dec 2011 
Хиппей (support team)
User avatar
Joined: 30 Jul 2007
Posts: 108837
Lоcаtion: Киев (Kyiv, UA)
Age: 45
Name: Andrey
McKagan wrote:
yes, i can download from this place.

Там регаться нада. Я упарился... :crazy:
Тём, ты как скачал? По мануалу от Andy?

_________________


Top
 Profile E-mail  
 
 
PostPosted: 29 Dec 2011 
хард н хэвщик (support team)
User avatar
Joined: 02 Jun 2008
Posts: 16880
Lоcаtion: Н.Новгород
Age: 31
Name: Артем
Scatterbrain wrote:
Там регаться нада. Я упарился... :crazy:

там не надо региться :benya: угу, по его мануалу


Top
 Profile  
 
 
PostPosted: 30 Dec 2011 
Хиппей (support team)
User avatar
Joined: 30 Jul 2007
Posts: 108837
Lоcаtion: Киев (Kyiv, UA)
Age: 45
Name: Andrey
McKagan wrote:
угу, по его мануалу

Ничо не вышло. Но нашёл у себя на винте уже три альбома...
Сейчас пытаюсь понять, где какой :crazy:

_________________


Top
 Profile E-mail  
 
Display posts from previous:  Sort by  
Post new topic Reply to topic  [ 11 posts ] 

All times are UTC + 3 hours


Who is online

Users browsing this forum: No registered users and 2 guests


You cannot post new topics in this forum
You cannot reply to topics in this forum
You cannot edit your posts in this forum
You cannot delete your posts in this forum
You cannot post attachments in this forum

Search for:
Яндекс.Метрика
Powered by phpBB © 2000, 2002, 2005, 2007 phpBB Group