\m/ 80's metal \m/

Информационно-аналитический форум "80 см пыли" (In Search We Trust) "У нас никто никуда не спешит"
Me For You - http://me-4u.com
It is currently 10 Dec 2018

All times are UTC + 3 hours

Spoiler
Chat - temporary registration for foreign users (please leave your application here)







Post new topic Reply to topic  [ 16 posts ] 
Author Message
 
PostPosted: 09 Oct 2011 
Работнечег
User avatar
Joined: 28 Aug 2007
Posts: 5597
Lоcаtion: г. Москва
Age: 29
Name: Дима
Blind Fury - Out Of Reach 1994 (Japan)

Image

Band: Blind Fury
Album: Out Of Reach
Label: Roadrunner Records
Genre: Heavy Metal
Country: UK
Format: Flac + Log + Cue + Covers
Size: 316 Mb

Line-Up:
Lou Taylor - Vocals
Steve Ramsey - Guitars
Russ Tippins - Guitars
Graeme English - Bass
Sean Taylor - Drums


Tracklist:
1. Do It Loud 05:05
2. Out of Reach 06:32
3. Evil Eyes 06:03
4. Contact Rock and Roll 03:56
5. Living on the Edge 05:19
6. Dynamo (There Is A Place) 03:06
7. Back Inside 05:31
8. Dance of the Crimson Lady, Part 1 07:27

LOG
Exact Audio Copy V0.99 prebeta 5 from 4. May 2009

EAC extraction logfile from 25. September 2011, 18:41

Blind Fury / Out Of Reach (Japan)

Used drive : PIONEER DVD-RW DVR-116D Adapter: 0 ID: 0

Read mode : Secure
Utilize accurate stream : Yes
Defeat audio cache : Yes
Make use of C2 pointers : No

Read offset correction : 96
Overread into Lead-In and Lead-Out : No
Fill up missing offset samples with silence : Yes
Delete leading and trailing silent blocks : No
Null samples used in CRC calculations : Yes
Used interface : Native Win32 interface for Win NT & 2000

Used output format : User Defined Encoder
Selected bitrate : 32 kBit/s
Quality : High
Add ID3 tag : No
Command line compressor : C:\Program Files\Exact Audio Copy\Flac\flac.exe
Additional command line options : -6 -V %s


TOC of the extracted CD

Track | Start | Length | Start sector | End sector
---------------------------------------------------------
1 | 0:00.37 | 5:05.67 | 37 | 22978
2 | 5:06.29 | 6:33.03 | 22979 | 52456
3 | 11:39.32 | 6:03.42 | 52457 | 79723
4 | 17:42.74 | 3:55.53 | 79724 | 97401
5 | 21:38.52 | 5:22.50 | 97402 | 121601
6 | 27:01.27 | 3:06.60 | 121602 | 135611
7 | 30:08.12 | 5:31.02 | 135612 | 160438
8 | 35:39.14 | 7:26.63 | 160439 | 193951


Range status and errors

Selected range

Filename D:\Музыка\Lossless\Blind Fury - Out Of Reach (1985) (Released In Japan In 1994)\Blind Fury - Out Of Reach (Japan).wav

Peak level 96.7 %
Range quality 100.0 %
Copy CRC 1E73F21A
Copy OK

No errors occurred


AccurateRip summary

Track 1 not present in database
Track 2 not present in database
Track 3 not present in database
Track 4 not present in database
Track 5 not present in database
Track 6 not present in database
Track 7 not present in database
Track 8 not present in database

None of the tracks are present in the AccurateRip database

End of status report

CUE
REM GENRE "Heavy Metal"
REM DATE 1985
REM DISCID 420A1A08
REM COMMENT "ExactAudioCopy v0.99pb5"
PERFORMER "Blind Fury"
TITLE "Out Of Reach (Japan)"
FILE "Blind Fury - Out Of Reach (Japan).flac" WAVE
TRACK 01 AUDIO
TITLE "Do It Loud"
PERFORMER "Blind Fury"
INDEX 00 00:00:00
INDEX 01 00:00:37
TRACK 02 AUDIO
TITLE "Out Of Reach"
PERFORMER "Blind Fury"
INDEX 01 05:06:29
TRACK 03 AUDIO
TITLE "Evil Eyes"
PERFORMER "Blind Fury"
INDEX 01 11:39:32
TRACK 04 AUDIO
TITLE "Contact Rock And Roll"
PERFORMER "Blind Fury"
INDEX 01 17:42:74
TRACK 05 AUDIO
TITLE "Living On The Edge"
PERFORMER "Blind Fury"
INDEX 01 21:38:52
TRACK 06 AUDIO
TITLE "Dynamo (There Is A Place ...)"
PERFORMER "Blind Fury"
INDEX 01 27:01:27
TRACK 07 AUDIO
TITLE "Back Inside"
PERFORMER "Blind Fury"
INDEX 01 30:08:12
TRACK 08 AUDIO
TITLE "Dance Of The Crimson Lady, Pt.1"
PERFORMER "Blind Fury"
INDEX 01 35:39:14

Spectrum
Attachment:
ScreenHunter_01 Oct. 09 22.58.jpg


Narod.Ru

По звуку никаких артефактов нет, но вот слушал этот диск сразу после Killers - Cites Interdites и бросилось в уши, что по уровню звука намного тише звучит этот альбом.


Top
 Profile E-mail  
 
 
PostPosted: 10 Oct 2011 
Хиппей (support team)
User avatar
Joined: 30 Jul 2007
Posts: 108779
Lоcаtion: Киев (Kyiv, UA)
Age: 45
Name: Andrey
:thanx:

Димка, вроде запрос по лосю этому был, да? :oops:

_________________


Top
 Profile E-mail  
 
 
PostPosted: 10 Oct 2011 
консэрваторъ
Joined: 11 Aug 2007
Posts: 16308
Lоcаtion: Псков
Age: 44
Name: Сергей
Scatterbrain wrote:
да?

Да...

_________________
THRASH 'EM ALL


Top
 Profile E-mail  
 
 
PostPosted: 10 Oct 2011 
Труъ
Joined: 01 Jan 2010
Posts: 118
Lоcаtion: MetaLWarrioR
Name: Сергей
church
Спасибо большое!


Top
 Profile E-mail  
 
 
PostPosted: 10 Oct 2011 
Прокъмитолист
User avatar
Joined: 12 Aug 2007
Posts: 6512
Lоcаtion: Санктъ-Петербуркъ
Age: 51
Name: Олекъ
классный подгон! :true: спасибо, Димка! :true: :true:

_________________
прокъметол - это музыко, от которово есть прок (ы)


Top
 Profile  
 
 
PostPosted: 10 Oct 2011 
дядя Миша
User avatar
Joined: 17 Oct 2008
Posts: 3078
Lоcаtion: USSR
Age: 56
Name: Khy
спасибо! Скачаю , сравню со своим , напишу.


Top
 Profile  
 
 
PostPosted: 11 Oct 2011 
Хиппей (support team)
User avatar
Joined: 30 Jul 2007
Posts: 108779
Lоcаtion: Киев (Kyiv, UA)
Age: 45
Name: Andrey
VARVAAR wrote:
сравню со своим , напишу.

Ждём-ждём-с :dance:

_________________


Top
 Profile E-mail  
 
 
PostPosted: 13 Oct 2011 
А может смените мне статус?..
Joined: 12 Dec 2008
Posts: 999
Lоcаtion: BULGARIA
Age: 40
Name: DIMITЪR
Спасибо звук качественьй , альбом тоже!!!!!! :true: :true:


Top
 Profile  
 
 
PostPosted: 21 Oct 2012 
Power Metal Maniac
User avatar
Joined: 09 Aug 2008
Posts: 6424
Lоcаtion: Москва
Age: 40
Name: Егор
:thanx:

_________________
Long Live Metal!


Top
 Profile  
 
 
PostPosted: 21 Oct 2012 
Я набрал 1000 сообщений!
Joined: 24 Oct 2009
Posts: 2116
Lоcаtion: Оренбург
Age: 55
Name: Юра
И от меня :thanx:

_________________
:dash: I am happy!


Top
 Profile E-mail  
 
 
PostPosted: 22 Oct 2012 
консэрваторъ
Joined: 11 Aug 2007
Posts: 16308
Lоcаtion: Псков
Age: 44
Name: Сергей
А это точно издание 94 года? Просто вот архивы пишут, что мол издание 94 года было на Apollon Records... а здесь
church wrote:
Label: Roadrunner Records

И дата на обложке стоит 20 мая 1996 года... :vic:

_________________
THRASH 'EM ALL


Top
 Profile E-mail  
 
 
PostPosted: 22 Oct 2012 
Прокъмитолист
User avatar
Joined: 12 Aug 2007
Posts: 6512
Lоcаtion: Санктъ-Петербуркъ
Age: 51
Name: Олекъ
splatty wrote:
И дата на обложке стоит 20 мая 1996 года...

Серёг, это не дата релиза. это дата, когда продавцы могут "отпустить" изначально установленную цену. и это издание Roadrunner/Apollon, 21 мая 1994 года, ага.

_________________
прокъметол - это музыко, от которово есть прок (ы)


Top
 Profile  
 
 
PostPosted: 22 Oct 2012 
консэрваторъ
Joined: 11 Aug 2007
Posts: 16308
Lоcаtion: Псков
Age: 44
Name: Сергей
spiralarch wrote:
когда продавцы могут "отпустить" изначально установленную цену

Ага, я так и подумал, когда добрался до темы Германа, тока там все картинки посдыхали...
spiralarch wrote:
это издание Roadrunner/Apollon, 21 мая 1994 года

а на обложке ж этого не видно, да? :oops:

_________________
THRASH 'EM ALL


Top
 Profile E-mail  
 
 
PostPosted: 22 Oct 2012 
Прокъмитолист
User avatar
Joined: 12 Aug 2007
Posts: 6512
Lоcаtion: Санктъ-Петербуркъ
Age: 51
Name: Олекъ
splatty wrote:
а на обложке ж этого не видно, да?

которая в первом посте? нет, там не видно (ну только если знать, что каталожный номер APCY - это Apollon). это только на заднике и на диске можно посмотреть.

_________________
прокъметол - это музыко, от которово есть прок (ы)


Top
 Profile  
 
 
PostPosted: 22 Oct 2012 
консэрваторъ
Joined: 11 Aug 2007
Posts: 16308
Lоcаtion: Псков
Age: 44
Name: Сергей
Всё понятно... спасибо, Олег...

_________________
THRASH 'EM ALL


Top
 Profile E-mail  
 
 
PostPosted: 17 Mar 2015 
\m/ 80 см сала \m/
User avatar
Joined: 12 Mar 2012
Posts: 2589
Age: 25
Name: Nick
:thanx:

_________________
1990 AUROPHON BRAINSTORM (Germany) - lossless
1994 MAUSOLEUM CLASSIX (Belgium-Germany) - lossless
1998 VA - GRIM HARVEST - Complete Metal Massacre Volumes I-XII


Top
 Profile  
 
Display posts from previous:  Sort by  
Post new topic Reply to topic  [ 16 posts ] 

All times are UTC + 3 hours


Who is online

Users browsing this forum: No registered users and 1 guest


You cannot post new topics in this forum
You cannot reply to topics in this forum
You cannot edit your posts in this forum
You cannot delete your posts in this forum
You cannot post attachments in this forum

Search for:
Яндекс.Метрика
Powered by phpBB © 2000, 2002, 2005, 2007 phpBB Group