\m/ 80's metal \m/

Информационно-аналитический форум "80 см пыли" (In Search We Trust) "У нас никто никуда не спешит"
Me For You - http://me-4u.com
It is currently 23 Oct 2018

All times are UTC + 3 hours

Spoiler
Chat - temporary registration for foreign users (please leave your application here)







Post new topic Reply to topic  [ 6 posts ] 
Author Message
 
PostPosted: 09 Oct 2011 
Хиппей (support team)
User avatar
Joined: 30 Jul 2007
Posts: 107127
Lоcаtion: Киев (Kyiv, UA)
Age: 45
Name: Andrey
Black Sabbath - 1975 - Sabotage (Sanctuary 2716665) [wv] - vinyl

Attachment:
front.jpg
front.jpg [ 744.95 KiB | Viewed 117 times ]


Genre: Hard Rock
Location: England
Format: wv (24/96)+cue+scans
Size: 1.55 Gb


Line-up:

Ozzy Osbourne - Vocals
Tony Iommi - Guitars
Geezer Butler - Bass
Bill Ward - Drums

01. Hole in the Sky - [0:04:03.27]
02. Don't Start (Too Late) - [0:00:48.59]
03. Symptom of the Universe - [0:06:25.39]
04. Megalomania - [0:09:43.39]
05. Thrill of It All - [0:05:57.45]
06. Supertzar - [0:03:41.36]
07. Am I Going Insane (Radio) - [0:04:35.44]
08. The Writ - [0:08:25.21]

pt1 - MultiUp l Narod
pt2 - MultiUp l Narod

Рип с оригинального винила со всеми приколами - треском, шумами и песочков :meloman:
Скачивал явно с форуме UnderTheSnow.ru :thanx:

На мой вкус альбом так себе... :pardon: Группа начала играть обычный хард-рок (ускорив тэмп и почти убрав налёт мрачности), постепенно теряя своё лицо (или приобретая новое, набравшись опыта?) и становясь похожими на Deep Purple. Лишь вокал Оззика "выдает" эту культовую группу =)

cue
REM GENRE "Heavy Metal"
REM DATE 1975
REM DISCID 610A3D08
REM COMMENT "ExactAudioCopy v0.99pb5"
CATALOG 0000000000000
PERFORMER "BLACK SABBATH"
TITLE "Sabotage [SANCTUARY 2716665]"
FILE "BLACK SABBATH [1975] [LP] Sabotage [SANCTUARY 2716665].wv" WAVE
TRACK 01 AUDIO
TITLE "Hole in the Sky"
PERFORMER "BLACK SABBATH"
INDEX 01 00:00:00
TRACK 02 AUDIO
TITLE "Don't Start (Too Late)"
PERFORMER "BLACK SABBATH"
INDEX 01 04:03:27
TRACK 03 AUDIO
TITLE "Symptom of the Universe"
PERFORMER "BLACK SABBATH"
INDEX 01 04:52:11
TRACK 04 AUDIO
TITLE "Megalomania"
PERFORMER "BLACK SABBATH"
INDEX 01 11:17:50
TRACK 05 AUDIO
TITLE "Thrill of It All"
PERFORMER "BLACK SABBATH"
INDEX 01 21:01:14
TRACK 06 AUDIO
TITLE "Supertzar"
PERFORMER "BLACK SABBATH"
INDEX 01 26:58:59
TRACK 07 AUDIO
TITLE "Am I Going Insane (Radio)"
PERFORMER "BLACK SABBATH"
INDEX 01 30:40:20
TRACK 08 AUDIO
TITLE "The Writ"
PERFORMER "BLACK SABBATH"
INDEX 01 35:15:64


spectrum
Attachment:
spectrum.jpg
spectrum.jpg [ 271.3 KiB | Viewed 114 times ]

_________________


Top
 Profile E-mail  
 
 
PostPosted: 09 Oct 2011 
Доктор энтомологии
User avatar
Joined: 22 Jan 2009
Posts: 9393
Lоcаtion: Даугавпилс
Age: 43
Name: Алексей
А по мне так один из любимых альбомов :true: (наряду с дебютником и Sabbath Bloody Sabbath), остальные периоды саббатов (без Оззи) плохо знаю (раздражает к примеру вокал Дио, не люблю его) или не слушал вообще :fingal:


Top
 Profile  
 
 
PostPosted: 09 Oct 2011 
дядя Миша
User avatar
Joined: 17 Oct 2008
Posts: 3060
Lоcаtion: USSR
Age: 56
Name: Khy
Андрюха опять "гонит". :umnik:


Top
 Profile  
 
 
PostPosted: 09 Oct 2011 
Хиппей (support team)
User avatar
Joined: 30 Jul 2007
Posts: 107127
Lоcаtion: Киев (Kyiv, UA)
Age: 45
Name: Andrey
Entomologist wrote:
остальные периоды саббатов (без Оззи) плохо знаю (раздражает к примеру вокал Дио, не люблю его[/u]) или не слушал вообще :fingal:

Эмм... ну тоже мнение :thanx:
Попробуй послушать хотя бы еще "Paranoid" с Оззиком и "Headless Cross" с Мартином. Авось попрёть :meloman:

VARVAAR wrote:
Андрюха опять "гонит". :umnik:

В смысле? Миш, конкретно что тебе не нравится в моих словах?
Пукнул, так разверни свою мысль, плиз. Хотя бы парой фраз.

_________________


Top
 Profile E-mail  
 
 
PostPosted: 09 Oct 2011 
Доктор энтомологии
User avatar
Joined: 22 Jan 2009
Posts: 9393
Lоcаtion: Даугавпилс
Age: 43
Name: Алексей
Scatterbrain wrote:
Entomologist wrote:
и "Headless Cross" с Мартином. Авось попрёть :meloman:


Да, почитав тут вершей, решил на досуге в процессе работы ознакомится более внимательно со всем творчеством Саббатов (все же с возрастом взгляды меняются, хоть и незначительно в моем случае). А то к ним, как с детского возраста пошло: труевым считал только их первый так скать период :pardon: А Параноид очень хорошо знаю, люблю этот альбом.. :true:


Top
 Profile  
 
 
PostPosted: 09 Oct 2011 
Хиппей (support team)
User avatar
Joined: 30 Jul 2007
Posts: 107127
Lоcаtion: Киев (Kyiv, UA)
Age: 45
Name: Andrey
Ага, именно, что с возрастом меняется восприятие музыки. То, что нравилось раньше, сейчас, зачастую, слушается как детский лепет :pardon:

Мож голосовалку прилепить и посмотрим, какие три альбома будут на первом месте? Или сколько - пять хватит?
Я про выбор альбомов при голосовании... И на каком месте именно этот будет.
В десятку точно войдет, а вот в пятёрку - это я очень сомневаюсь :nea:

_________________


Top
 Profile E-mail  
 
Display posts from previous:  Sort by  
Post new topic Reply to topic  [ 6 posts ] 

All times are UTC + 3 hours


Who is online

Users browsing this forum: No registered users and 2 guests


You cannot post new topics in this forum
You cannot reply to topics in this forum
You cannot edit your posts in this forum
You cannot delete your posts in this forum
You cannot post attachments in this forum

Search for:
Яндекс.Метрика
Powered by phpBB © 2000, 2002, 2005, 2007 phpBB Group