\m/ 80's metal \m/

Информационно-аналитический форум "80 см пыли" (In Search We Trust) "У нас никто никуда не спешит"
Me For You - http://me-4u.com
It is currently 17 Dec 2018

All times are UTC + 3 hours

Spoiler
Chat - temporary registration for foreign users (please leave your application here)







Post new topic Reply to topic  [ 12 posts ] 
Author Message
 
PostPosted: 13 Sep 2011 
Труъ
Joined: 01 Jan 2010
Posts: 118
Lоcаtion: MetaLWarrioR
Name: Сергей
Image
Исполнитель: Barren Cross
Альбом: Rattle Your Cage
Год: 1994
Страна: United States
Стиль: Heavy Metal
Формат: Lossless

Треклист:
01.Rattle Your cage
02.Here I Am
03.Unsuspecting
04.No Time To Run
05.Sick
06.Somewhere Far Away
07.Feed The Fire
08.Let It Go Let It Die
09.Time For Love
10.J.R.M
11.Your Will
12.Midnight Son


Top
 Profile E-mail  
 
 
PostPosted: 13 Sep 2011 
А может смените мне статус?..
User avatar
Joined: 08 Nov 2007
Posts: 634
Lоcаtion: Crimea, UA
Age: 32
Name: Анатолий
Вроде бы не редкость.. нашел на болванке, сейчас попытаюсь найти где скачивал.


Top
 Profile  
 
 
PostPosted: 13 Sep 2011 
Труъ
Joined: 01 Jan 2010
Posts: 118
Lоcаtion: MetaLWarrioR
Name: Сергей
Nitro wrote:
Вроде бы не редкость.. нашел на болванке, сейчас попытаюсь найти где скачивал.

Да, я тоже в сети много где видел, вот только везде натыкался на дохлые ссылки!


Top
 Profile E-mail  
 
 
PostPosted: 13 Sep 2011 
А может смените мне статус?..
User avatar
Joined: 08 Nov 2007
Posts: 634
Lоcаtion: Crimea, UA
Age: 32
Name: Анатолий
Не нашёл, откуда скачивал :fingal: В названии файла написано "ripped by Metallord". Без сканов.

http://www.multiupload.com/HIKG4NAKOD

Может сканы отсюда пойдут:
http://cover-paradise.to/?Module=ViewEntry&ID=299722

Ну и тут ссылка сдохла:
http://strutter.moole.ru/269846-barren- ... -1994.html


Top
 Profile  
 
 
PostPosted: 13 Sep 2011 
Труъ
Joined: 01 Jan 2010
Posts: 118
Lоcаtion: MetaLWarrioR
Name: Сергей
Nitro
Большое спасибо!


Top
 Profile E-mail  
 
 
PostPosted: 13 Sep 2011 
Прокъмитолист
User avatar
Joined: 12 Aug 2007
Posts: 6514
Lоcаtion: Санктъ-Петербуркъ
Age: 51
Name: Олекъ
Metallord - это Явор (по-моему здесь он тоже зареген), а выкладывал он скорее всего на Задаваке, ага.

_________________
прокъметол - это музыко, от которово есть прок (ы)


Top
 Profile  
 
 
PostPosted: 13 Sep 2011 
Труъ
Joined: 01 Jan 2010
Posts: 118
Lоcаtion: MetaLWarrioR
Name: Сергей
spiralarch wrote:
Metallord - это Явор (по-моему здесь он тоже зареген), а выкладывал он скорее всего на Задаваке, ага.


На "Задаваке" Steelwing выкладывал!


Top
 Profile E-mail  
 
 
PostPosted: 13 Sep 2011 
Прокъмитолист
User avatar
Joined: 12 Aug 2007
Posts: 6514
Lоcаtion: Санктъ-Петербуркъ
Age: 51
Name: Олекъ
MetaLWarrioR wrote:
На "Задаваке" Steelwing выкладывал!

вижу уже. ну значит Дима еще откуда-то утянул, но рип все равно должен быть Явора :pardon:

_________________
прокъметол - это музыко, от которово есть прок (ы)


Top
 Profile  
 
 
PostPosted: 13 Sep 2011 
Труъ
Joined: 01 Jan 2010
Posts: 118
Lоcаtion: MetaLWarrioR
Name: Сергей
А я что-то и не подумал у Steelwing-а сразу спросить!
В любом случае спасибо Nitro!


Top
 Profile E-mail  
 
 
PostPosted: 13 Sep 2011 
Хиппей (support team)
User avatar
Joined: 30 Jul 2007
Posts: 108973
Lоcаtion: Киев (Kyiv, UA)
Age: 45
Name: Andrey
Ага, Явор рипал.

Толя, лог и куй могешь выложить?

_________________


Top
 Profile E-mail  
 
 
PostPosted: 13 Sep 2011 
А может смените мне статус?..
User avatar
Joined: 08 Nov 2007
Posts: 634
Lоcаtion: Crimea, UA
Age: 32
Name: Анатолий
cue
REM GENRE Heavy Metal
REM DATE 1994
REM DISCID 9C0AF60C
REM COMMENT ExactAudioCopy v0.99pb5
PERFORMER "Barren Cross"
TITLE "Rattle Your Cage"
FILE "Barren Cross - Rattle Your Cage (ripped by Metallord).ape" WAVE
TRACK 01 AUDIO
TITLE "Rattle Your Cage"
INDEX 00 00:00:00
INDEX 01 00:02:00
TRACK 02 AUDIO
TITLE "Here I Am"
INDEX 00 04:21:65
INDEX 01 04:23:65
TRACK 03 AUDIO
TITLE "Unsuspecting"
INDEX 00 07:53:33
INDEX 01 07:55:33
TRACK 04 AUDIO
TITLE "No Time To Run"
INDEX 00 11:53:27
INDEX 01 11:55:27
TRACK 05 AUDIO
TITLE "Sick"
INDEX 00 15:31:13
INDEX 01 15:33:13
TRACK 06 AUDIO
TITLE "Somewhere Far Away"
INDEX 00 19:01:43
INDEX 01 19:03:43
TRACK 07 AUDIO
TITLE "Feed The Fire"
INDEX 00 21:56:13
INDEX 01 21:58:13
TRACK 08 AUDIO
TITLE "Let It Go, Let It Die"
INDEX 00 25:35:70
INDEX 01 25:37:70
TRACK 09 AUDIO
TITLE "Time For Love"
INDEX 00 30:27:38
INDEX 01 30:29:38
TRACK 10 AUDIO
TITLE "J.R.M."
INDEX 00 33:40:10
INDEX 01 33:42:10
TRACK 11 AUDIO
TITLE "Your Will"
INDEX 00 37:34:35
INDEX 01 37:36:35
TRACK 12 AUDIO
TITLE "Midnight Son"
INDEX 00 41:27:03
INDEX 01 41:29:03

log
Exact Audio Copy V0.99 prebeta 5 from 4. May 2009

EAC extraction logfile from 6. February 2010, 10:26

Barren Cross / Rattle Your Cage (ripped by Metallord)

Used drive : Optiarc DVD RW AD-7203S Adapter: 0 ID: 0

Read mode : Secure
Utilize accurate stream : Yes
Defeat audio cache : Yes
Make use of C2 pointers : No

Combined read/write offset correction : 66
Overread into Lead-In and Lead-Out : No
Fill up missing offset samples with silence : Yes
Delete leading and trailing silent blocks : No
Null samples used in CRC calculations : Yes
Used interface : Installed external ASPI interface

Used output format : Monkey's Audio Lossless Encoder
Selected bitrate : Extra High Lossless Compression
Quality : High
Add ID3 tag : Yes
Command line compressor : C:\Program Files\Monkey's Audio\MAC.exe


TOC of the extracted CD

Track | Start | Length | Start sector | End sector
---------------------------------------------------------
1 | 0:02.00 | 4:21.65 | 150 | 19789
2 | 4:23.65 | 3:31.43 | 19790 | 35657
3 | 7:55.33 | 3:59.69 | 35658 | 53651
4 | 11:55.27 | 3:37.61 | 53652 | 69987
5 | 15:33.13 | 3:30.30 | 69988 | 85767
6 | 19:03.43 | 2:54.45 | 85768 | 98862
7 | 21:58.13 | 3:39.57 | 98863 | 115344
8 | 25:37.70 | 4:51.43 | 115345 | 137212
9 | 30:29.38 | 3:12.47 | 137213 | 151659
10 | 33:42.10 | 3:54.25 | 151660 | 169234
11 | 37:36.35 | 3:52.43 | 169235 | 186677
12 | 41:29.03 | 5:19.46 | 186678 | 210648


Range status and errors

Selected range

Filename D:\0\BARREN CROSS - 1994 - Rattle Your Cage (ripped by Metallord)\Barren Cross - Rattle Your Cage (ripped by Metallord).wav

Peak level 94.4 %
Range quality 100.0 %
Copy CRC 7BACFAB9
Copy OK

No errors occurred

End of status report

MetaLWarrioR
не за что

В общем, у меня еще несколько альбомов от того же Явора... скорее всего, скачивал с какого-то из сдохших доков мула или ннм.


Top
 Profile  
 
 
PostPosted: 14 Sep 2011 
Хиппей (support team)
User avatar
Joined: 30 Jul 2007
Posts: 108973
Lоcаtion: Киев (Kyiv, UA)
Age: 45
Name: Andrey
:thanx:
mirror: MultiUp l Narod

_________________


Top
 Profile E-mail  
 
Display posts from previous:  Sort by  
Post new topic Reply to topic  [ 12 posts ] 

All times are UTC + 3 hours


Who is online

Users browsing this forum: No registered users and 4 guests


You cannot post new topics in this forum
You cannot reply to topics in this forum
You cannot edit your posts in this forum
You cannot delete your posts in this forum
You cannot post attachments in this forum

Search for:
Яндекс.Метрика
Powered by phpBB © 2000, 2002, 2005, 2007 phpBB Group