\m/ 80's metal \m/

Информационно-аналитический форум "80 см пыли" (In Search We Trust) "У нас никто никуда не спешит"
Me For You - http://me-4u.com
It is currently 15 Dec 2018

All times are UTC + 3 hours

Spoiler
Chat - temporary registration for foreign users (please leave your application here)







Post new topic Reply to topic  [ 31 posts ]  Go to page Previous  1, 2
Author Message
 
PostPosted: 31 Aug 2011 
Прокъмитолист
User avatar
Joined: 12 Aug 2007
Posts: 6514
Lоcаtion: Санктъ-Петербуркъ
Age: 51
Name: Олекъ
Beast [1985] Like Living In A Cage (1994 reissue)
Mausoleum (704140.2)

Image

Genre: heavy metal
Country: Germany
Contents: flac/cue/log/scans
Size: 294 MB

Tracklist:
01. Like Living In A Cage
02. Mad Man
03. Rock For Nation
04. Black Woman
05. One More Time
06. The Leader Of The Gang (Gary Glitter cover)
07. Don't Let Me Down Again
08. Run For Your Life
09. Do Or Die
10. Bad Demon

Playtime: 39:58

Lineup:
H.J. Bergt - vocals and rhythm guitars
Kurt Bergt - lead guitars and vocals
Helmut Merk - bass
Roland Bayer - drums

EAC log
Code:
Exact Audio Copy V1.0 beta 1 from 15. November 2010

EAC extraction logfile from 25. August 2011, 18:48

Beast / Like Living In A Cage (1994)

Used drive  : Optiarc DVD RW AD-7240S   Adapter: 2  ID: 0

Read mode               : Secure
Utilize accurate stream : Yes
Defeat audio cache      : Yes
Make use of C2 pointers : No

Read offset correction                      : 48
Overread into Lead-In and Lead-Out          : No
Fill up missing offset samples with silence : Yes
Delete leading and trailing silent blocks   : No
Null samples used in CRC calculations       : Yes
Used interface                              : Native Win32 interface for Win NT & 2000

Used output format : Internal WAV Routines
Sample format      : 44.100 Hz; 16 Bit; Stereo


TOC of the extracted CD

     Track |   Start  |  Length  | Start sector | End sector
    ---------------------------------------------------------
        1  |  0:00.00 |  5:43.25 |         0    |    25749   
        2  |  5:43.25 |  3:17.47 |     25750    |    40571   
        3  |  9:00.72 |  4:25.58 |     40572    |    60504   
        4  | 13:26.55 |  3:14.07 |     60505    |    75061   
        5  | 16:40.62 |  4:20.30 |     75062    |    94591   
        6  | 21:01.17 |  3:21.03 |     94592    |   109669   
        7  | 24:22.20 |  4:58.10 |    109670    |   132029   
        8  | 29:20.30 |  2:22.57 |    132030    |   142736   
        9  | 31:43.12 |  3:28.63 |    142737    |   158399   
       10  | 35:12.00 |  4:46.17 |    158400    |   179866   


Range status and errors

Selected range

     Filename D:\spiralarch\Beast - Like Living In A Cage (1994).wav

     Peak level 93.1 %
     Extraction speed 0.4 X
     Range quality 100.0 %
     Copy CRC 35F1A768
     Copy OK

No errors occurred


AccurateRip summary

Track  1  not present in database
Track  2  not present in database
Track  3  not present in database
Track  4  not present in database
Track  5  not present in database
Track  6  not present in database
Track  7  not present in database
Track  8  not present in database
Track  9  not present in database
Track 10  not present in database

None of the tracks are present in the AccurateRip database

End of status report

==== Log checksum 4B08B8E50B8432B7E35370A67FA7A5AC884FB36A205C9DF68646D15653D5F0AB ====

Еще один рип с диска Димки church :thanx: Как раз собирался релизить на ММТ, но руки не дошли. Так что у вас "право первой ночи" ;)

_________________
прокъметол - это музыко, от которово есть прок (ы)


Last edited by spiralarch on 31 Aug 2011, edited 1 time in total.

Top
 Profile  
 
 
PostPosted: 03 Sep 2011 
Пионэръ
Joined: 12 Aug 2009
Posts: 20
Name: Явор
Дима и Олег, огромное вам человеческое спасибо за этот альбом!!! :iii: :iii: Прекрасный породистый лось!!! :nofuck:


Top
 Profile E-mail  
 
 
PostPosted: 08 Sep 2011 
Анатолий
User avatar
Joined: 18 Oct 2008
Posts: 3246
Lоcаtion: Армавир
Age: 41
Name: Анатолий
Большое спасибо за лося! :thanx:

К этой серии переизданий вопросов пока не было.


Top
 Profile E-mail  
 
 
PostPosted: 15 Oct 2013 
\m/ 80 см сала \m/
User avatar
Joined: 12 Mar 2012
Posts: 2589
Age: 25
Name: Nick
"Собираю" сейчас рипы с Мавзолеевского каталога переизданий, спасибо :thanx:

_________________
1990 AUROPHON BRAINSTORM (Germany) - lossless
1994 MAUSOLEUM CLASSIX (Belgium-Germany) - lossless
1998 VA - GRIM HARVEST - Complete Metal Massacre Volumes I-XII


Top
 Profile  
 
 
PostPosted: 17 Jun 2014 
Я набрал 1000 сообщений!
Joined: 21 Nov 2009
Posts: 1404
Lоcаtion: praga
Age: 48
Name: Сергей
Оригинального задника с винила случайно нет?


Top
 Profile E-mail  
 
 
PostPosted: 17 Jun 2014 
Хиппей (support team)
User avatar
Joined: 30 Jul 2007
Posts: 108917
Lоcаtion: Киев (Kyiv, UA)
Age: 45
Name: Andrey
http://ohrenbalsam.blogspot.com/2011/06 ... -1994.html :vic:

_________________


Top
 Profile E-mail  
 
 
PostPosted: 17 Jun 2014 
Я набрал 1000 сообщений!
Joined: 21 Nov 2009
Posts: 1404
Lоcаtion: praga
Age: 48
Name: Сергей
Спасибо Андрюха,но задника там не увидел. :dash:


Top
 Profile E-mail  
 
 
PostPosted: 17 Jun 2014 
Хиппей (support team)
User avatar
Joined: 30 Jul 2007
Posts: 108917
Lоcаtion: Киев (Kyiv, UA)
Age: 45
Name: Andrey
Ну тогда явно вот он :umnik:

Image

http://kdrth.free.fr/MesVinyls/MesLpsB.htm

_________________


Top
 Profile E-mail  
 
 
PostPosted: 17 Jun 2014 
Я набрал 1000 сообщений!
Joined: 21 Nov 2009
Posts: 1404
Lоcаtion: praga
Age: 48
Name: Сергей
Да Андрюх ето оно.на этом сайте я видел,качество хреновое.


Top
 Profile E-mail  
 
 
PostPosted: 18 Jun 2014 
Хиппей (support team)
User avatar
Joined: 30 Jul 2007
Posts: 108917
Lоcаtion: Киев (Kyiv, UA)
Age: 45
Name: Andrey
Дык, Серёг, ну тогда вопрос странный. =))
Нужно было сказать - ищу качественный бэк-ковер с обложи винила :pardon: А оригинальный это ж.... сама пластинка.
Тогда хм, подождём, авось у кого есть и он вышлет отфоткает-отсканирует :dance:

_________________


Top
 Profile E-mail  
 
 
PostPosted: 18 Jun 2014 
Хиппей (support team)
User avatar
Joined: 30 Jul 2007
Posts: 108917
Lоcаtion: Киев (Kyiv, UA)
Age: 45
Name: Andrey
Quote:
Сейчас этот форум просматривают: ironbaback, Scatterbrain и гости: 1

Драсти, Олег :true:

_________________


Top
 Profile E-mail  
 
 
PostPosted: 19 Jun 2014 
Я набрал 1000 сообщений!
Joined: 21 Nov 2009
Posts: 1404
Lоcаtion: praga
Age: 48
Name: Сергей
:vic:


Top
 Profile E-mail  
 
Display posts from previous:  Sort by  
Post new topic Reply to topic  [ 31 posts ]  Go to page Previous  1, 2

All times are UTC + 3 hours


Who is online

Users browsing this forum: No registered users and 3 guests


You cannot post new topics in this forum
You cannot reply to topics in this forum
You cannot edit your posts in this forum
You cannot delete your posts in this forum
You cannot post attachments in this forum

Search for:
Яндекс.Метрика
Powered by phpBB © 2000, 2002, 2005, 2007 phpBB Group