\m/ 80's metal \m/

Информационно-аналитический форум "80 см пыли" (In Search We Trust) "У нас никто никуда не спешит"
Me For You - http://me-4u.com
It is currently 16 Dec 2018

All times are UTC + 3 hours

Spoiler
Chat - temporary registration for foreign users (please leave your application here)







Post new topic Reply to topic  [ 85 posts ]  Go to page Previous  1, 2, 3, 4, 5  Next
Author Message
 
PostPosted: 17 Oct 2011 
Хиппей (support team)
User avatar
Joined: 30 Jul 2007
Posts: 108947
Lоcаtion: Киев (Kyiv, UA)
Age: 45
Name: Andrey
И я жду еще :dance:

_________________


Top
 Profile E-mail  
 
 
PostPosted: 22 Oct 2011 
Труъ
Joined: 01 Jan 2010
Posts: 118
Lоcаtion: MetaLWarrioR
Name: Сергей
Scatterbrain
Ну что там у нас...


Top
 Profile E-mail  
 
 
PostPosted: 22 Oct 2011 
Хиппей (support team)
User avatar
Joined: 30 Jul 2007
Posts: 108947
Lоcаtion: Киев (Kyiv, UA)
Age: 45
Name: Andrey
В процессе уже :dance:

_________________


Top
 Profile E-mail  
 
 
PostPosted: 24 Oct 2011 
Хиппей (support team)
User avatar
Joined: 30 Jul 2007
Posts: 108947
Lоcаtion: Киев (Kyiv, UA)
Age: 45
Name: Andrey
Альбом уже на винте. Остались только сканы. Завтра явно будет всё здесь.

Серёг, а вообще, куда такая спешка? :vic:

_________________


Top
 Profile E-mail  
 
 
PostPosted: 24 Oct 2011 
Труъ
Joined: 01 Jan 2010
Posts: 118
Lоcаtion: MetaLWarrioR
Name: Сергей
Scatterbrain wrote:
Альбом уже на винте. Остались только сканы. Завтра явно будет всё здесь.

Здорово!
Scatterbrain wrote:
Серёг, а вообще, куда такая спешка?

Да какая тут спешка?!


Top
 Profile E-mail  
 
 
PostPosted: 28 Oct 2011 
Хиппей (support team)
User avatar
Joined: 30 Jul 2007
Posts: 108947
Lоcаtion: Киев (Kyiv, UA)
Age: 45
Name: Andrey
Banshee - 1991 - Take 'Em By Storm (reissued 2008) [flac]

Image
Image

Genre: Melodic Power Heavy
Location: USA
Format: flac+cue+log+covers
Size: 335 Mb


Line-up:

Tommy Lee Flood - Vocals
Terry Dunn - Guitars
Tyson Leslie - Bass
Kent Durham - Drums

    1. Color Me - 03:30
    2. Fight - 03:53
    3. Memories - 04:25
    4. Running Wild - 04:43
    5. Stand Strong - 03:42
    6. The Spell - 03:51
    7. Desire - 03:47
    8. Livin' It Up - 05:09
    9. Locked Inside - 05:42
    10. Out for Love - 04:15
    11. Live for Music (The Slam) - 04:28

    TPT: 47:48

8/10

MultiUp l Narod

log
Отчёт EAC об извлечении, выполненном 23. октября 2011, 10:49 для диска:
Banshee / Take 'Em By Storm

Дисковод: ASUS DRW-1814BL Adapter: 3 ID: 0
Режим чтения: Достоверный (C2: нет, Точный поток: да, Отключение кэша: да)
Коррекция смещения при чтении: 6
Способность читать области Lead-in и Lead-out : Нет

Выходной формат: Внутренние WAV-операции
44.100 Гц; 16 бит; стерео

Другие параметры:
Заполнение пропущенных сэмплов тишиной : Да
Удаление блоков с тишиной в начале и конце : Нет
Установленный внешний ASPI-интерфейс


Характеристики диапазона извлечения и сообщения об ошибках
Выбранный диапазон
Имя файла C:\Documents and Settings\Administrator\Desktop\banshee\Banshee - Take 'Em By Storm.wav

Пиковый уровень 100.0 %
Качество диапазона 100.0 %
CRC DEDF7A3A
Копирование... OK

Ошибок не произошло

Конец отчёта


cue
REM DISCID 790B340B
REM COMMENT "ExactAudioCopy v0.95b4"
PERFORMER "Banshee"
TITLE "Take 'Em By Storm"
FILE "Banshee - Take 'Em By Storm.wav" WAVE
TRACK 01 AUDIO
TITLE "Color Me"
PERFORMER "Banshee"
FLAGS DCP
INDEX 01 00:00:00
TRACK 02 AUDIO
TITLE "Fight"
PERFORMER "Banshee"
FLAGS DCP
INDEX 00 03:30:01
INDEX 01 03:32:01
TRACK 03 AUDIO
TITLE "Memories"
PERFORMER "Banshee"
FLAGS DCP
INDEX 00 07:25:02
INDEX 01 07:27:02
TRACK 04 AUDIO
TITLE "Running Wild"
PERFORMER "Banshee"
FLAGS DCP
INDEX 00 11:52:41
INDEX 01 11:54:41
TRACK 05 AUDIO
TITLE "Stand Strong"
PERFORMER "Banshee"
FLAGS DCP
INDEX 00 16:38:16
INDEX 01 16:40:16
TRACK 06 AUDIO
TITLE "The Spell"
PERFORMER "Banshee"
FLAGS DCP
INDEX 00 20:22:19
INDEX 01 20:24:19
TRACK 07 AUDIO
TITLE "Desire (Remix)"
PERFORMER "Banshee"
FLAGS DCP
INDEX 00 24:15:18
INDEX 01 24:17:18
TRACK 08 AUDIO
TITLE "Livin' It Up"
PERFORMER "Banshee"
FLAGS DCP
INDEX 00 28:05:01
INDEX 01 28:07:01
TRACK 09 AUDIO
TITLE "Locked Inside"
PERFORMER "Banshee"
FLAGS DCP
INDEX 00 33:16:13
INDEX 01 33:18:13
TRACK 10 AUDIO
TITLE "Out For Love"
PERFORMER "Banshee"
FLAGS DCP
INDEX 00 39:00:27
INDEX 01 39:02:27
TRACK 11 AUDIO
TITLE "Live For Music (The Slam)"
PERFORMER "Banshee"
FLAGS DCP
INDEX 00 43:17:29
INDEX 01 43:19:29


spectrum
Image

_________________


Top
 Profile E-mail  
 
 
PostPosted: 28 Oct 2011 
Труъ
Joined: 01 Jan 2010
Posts: 118
Lоcаtion: MetaLWarrioR
Name: Сергей
Scatterbrain
Спасибо большое!!!


Top
 Profile E-mail  
 
 
PostPosted: 28 Oct 2011 
Анатолий
User avatar
Joined: 18 Oct 2008
Posts: 3253
Lоcаtion: Армавир
Age: 41
Name: Анатолий
Вельми понеже! :thanx:


Top
 Profile E-mail  
 
 
PostPosted: 28 Oct 2011 
Хиппей (support team)
User avatar
Joined: 30 Jul 2007
Posts: 108947
Lоcаtion: Киев (Kyiv, UA)
Age: 45
Name: Andrey
Так...
Две недели слушал альбом и только сегодня обнаружил небольшой косяк. На этом рипе. В самом конце 5-го (отметка 20:22 с начала альбома) трэка всунулось мизерное начало 6-го. Затем 6-й пошел. Опять-таки, с нужного места. То есть - с начала =)
Сейчас еще переслушаю вавы и куй проверю...

_________________


Top
 Profile E-mail  
 
 
PostPosted: 28 Oct 2011 
Анатолий
User avatar
Joined: 18 Oct 2008
Posts: 3253
Lоcаtion: Армавир
Age: 41
Name: Анатолий
Ну вот... начинается... кайфоломщик!!!


Top
 Profile E-mail  
 
 
PostPosted: 28 Oct 2011 
Хиппей (support team)
User avatar
Joined: 30 Jul 2007
Posts: 108947
Lоcаtion: Киев (Kyiv, UA)
Age: 45
Name: Andrey
Куй в норме. Косяк в ваве.
Хм, пошёл еще раз слушать mp3-рип :vic:

_________________


Top
 Profile E-mail  
 
 
PostPosted: 28 Oct 2011 
Хиппей (support team)
User avatar
Joined: 30 Jul 2007
Posts: 108947
Lоcаtion: Киев (Kyiv, UA)
Age: 45
Name: Andrey
Privateer wrote:
Ну вот... начинается... кайфоломщик!!!

Ага. Аж самому неудобно - ты бы первым обнаружил косяк, а тут я сам =)
Щас попробую отрезать лишние 0.02 секунды :pardon:

_________________


Top
 Profile E-mail  
 
 
PostPosted: 28 Oct 2011 
А может смените мне статус?..
User avatar
Joined: 24 Dec 2008
Posts: 622
Age: 44
Name: Дмитрий
Спасибо!


Top
 Profile  
 
 
PostPosted: 28 Oct 2011 
Хиппей (support team)
User avatar
Joined: 30 Jul 2007
Posts: 108947
Lоcаtion: Киев (Kyiv, UA)
Age: 45
Name: Andrey
Scatterbrain wrote:
Щас попробую отрезать лишние 0.02 секунды

Пока не буду этого делать.
Данный косяк наличествует и на самом диске-переиздании и на оригинальном, первичном :pardon:

_________________


Top
 Profile E-mail  
 
 
PostPosted: 29 Oct 2011 
Пионэръ
User avatar
Joined: 08 Nov 2010
Posts: 43
Lоcаtion: Россия
Name: Юрий
Спасибо, забираю!


Top
 Profile E-mail  
 
 
PostPosted: 29 Oct 2011 
Персональный статус
User avatar
Joined: 22 Oct 2011
Posts: 352
Lоcаtion: Moscow
Age: 60
Name: Серёжа
Ждал, очень ждал этот альбом. Большущее спасибо!!


Top
 Profile E-mail  
 
 
PostPosted: 29 Oct 2011 
Труъ
User avatar
Joined: 12 Jun 2010
Posts: 189
Age: 53
Name: George
Love remasteres!! :true:


Top
 Profile E-mail  
 
 
PostPosted: 29 Oct 2011 
Труъ
User avatar
Joined: 14 Jul 2009
Posts: 158
Lоcаtion: Hell Is Here
Age: 48
Name: Adriano
Many Thanx ! :true:


Top
 Profile E-mail  
 
 
PostPosted: 30 Oct 2011 
Я набрал 1000 сообщений!
Joined: 12 Dec 2008
Posts: 1000
Lоcаtion: BULGARIA
Age: 40
Name: DIMITЪR
Котегорично диск сделан потреково, не знаю дали из мп3 или от лослес, но ето не оригинал :nunu: :nunu:


Top
 Profile  
 
 
PostPosted: 30 Oct 2011 
Хиппей (support team)
User avatar
Joined: 30 Jul 2007
Posts: 108947
Lоcаtion: Киев (Kyiv, UA)
Age: 45
Name: Andrey
cryptors wrote:
Котегорично диск сделан потреково

:shok: Скажи лучше по-болгарски, может я тебя лучше пойму :vic:
cryptors wrote:
не знаю дали из мп3 или от лослес, но ето не оригинал

Не оригинал чего? Это переиздание от самой группы.

_________________


Top
 Profile E-mail  
 
Display posts from previous:  Sort by  
Post new topic Reply to topic  [ 85 posts ]  Go to page Previous  1, 2, 3, 4, 5  Next

All times are UTC + 3 hours


Who is online

Users browsing this forum: No registered users and 2 guests


You cannot post new topics in this forum
You cannot reply to topics in this forum
You cannot edit your posts in this forum
You cannot delete your posts in this forum
You cannot post attachments in this forum

Search for:
Яндекс.Метрика
Powered by phpBB © 2000, 2002, 2005, 2007 phpBB Group