\m/ 80's metal \m/

Информационно-аналитический форум "80 см пыли" (In Search We Trust) "У нас никто никуда не спешит"
Me For You - http://me-4u.com
It is currently 16 Feb 2019

All times are UTC + 3 hours

Spoiler
Chat - temporary registration for foreign users (please leave your application here)







Post new topic Reply to topic  [ 31 posts ]  Go to page Previous  1, 2
Author Message
 
PostPosted: 07 Feb 2019 
дядя Миша
User avatar
Joined: 17 Oct 2008
Posts: 3094
Lоcаtion: USSR
Age: 56
Name: Khy
На торренте появился :Special compilation album release from BLACKSMITH includes tracks from their debut single released
in 1985 plus their second single released in 1986.
Also includes demo tracks. Cardboard sleeve packaging, including an inner bag.


Top
 Profile  
 
 
PostPosted: 09 Feb 2019 
Труъ
User avatar
Joined: 28 Mar 2013
Posts: 175
Lоcаtion: Parana-Brazil
Age: 53
Name: Pedro Gabriel Lanza
Кто может скачать это :( :( :(
http://darkabyss.org/index.php?topic=76567.0


They charges 1 Euro by material. So worth it. Somebody in here participate in this closed russian forum? Seems Michael Schymygel (Liege Steel member in here) is active in this forum by years.

---------------------

Blacksmith - Gipsy Queen - The Early Years 83-86
https://we.tl/t-Hm3hGVezBh
https://we.tl/t-CW7op69h95


Top
 Profile E-mail  
 
 
PostPosted: 09 Feb 2019 
Хиппей (support team)
User avatar
Joined: 30 Jul 2007
Posts: 110287
Lоcаtion: Киев (Kyiv, UA)
Age: 45
Name: Andrey
Pelu wrote:
Blacksmith - Gipsy Queen - The Early Years 83-86

:thanx:

mirror: Uloz l Drop l Narod l M-Cloud

log
Exact Audio Copy V1.3 from 2. September 2016

EAC extraction logfile from 15. October 2018, 13:49

Blacksmith / Gipsy Queen - The Early Years 83-86

Used drive : ASUS DRW-24B1ST Adapter: 1 ID: 0

Read mode : Secure
Utilize accurate stream : Yes
Defeat audio cache : Yes
Make use of C2 pointers : No

Read offset correction : 6
Overread into Lead-In and Lead-Out : No
Fill up missing offset samples with silence : Yes
Delete leading and trailing silent blocks : No
Null samples used in CRC calculations : Yes
Used interface : Native Win32 interface for Win NT & 2000
Gap handling : Appended to previous track

Used output format : User Defined Encoder
Selected bitrate : 1024 kBit/s
Quality : High
Add ID3 tag : No
Command line compressor : C:\Program Files (x86)\Exact Audio Copy\Flac\flac.exe
Additional command line options : -8 -e -p -V -T "ARTIST=%artist%" -T "TITLE=%title%" -T "ALBUM=%albumtitle%" -T "DATE=%year%" -T "TRACKNUMBER=%tracknr%" -T "GENRE=%genre%" -T "PERFORMER=%albuminterpret%" -T "COMPOSER=%composer%" %haslyrics%--tag-from-file=LYRICS="%lyricsfile%"%haslyrics% -T "ALBUMARTIST=%albumartist%" -T "DISCNUMBER=%cdnumber%" -T "TOTALDISCS=%totalcds%" -T "TOTALTRACKS=%numtracks%" -T "COMMENT=%comment%" %source% -o %dest%


TOC of the extracted CD

Track | Start | Length | Start sector | End sector
---------------------------------------------------------
1 | 0:00.00 | 4:11.37 | 0 | 18861
2 | 4:11.37 | 4:40.58 | 18862 | 39919
3 | 8:52.20 | 4:50.15 | 39920 | 61684
4 | 13:42.35 | 4:32.41 | 61685 | 82125
5 | 18:15.01 | 4:03.23 | 82126 | 100373
6 | 22:18.24 | 4:59.03 | 100374 | 122801
7 | 27:17.27 | 8:22.46 | 122802 | 160497
8 | 35:39.73 | 4:14.18 | 160498 | 179565
9 | 39:54.16 | 7:47.59 | 179566 | 214649


Track 1

Filename F:\Music\My Rips\01 - Gipsy Queen.wav

Pre-gap length 0:00:02.00

Peak level 98.6 %
Extraction speed 1.9 X
Track quality 100.0 %
Test CRC F8A9ED24
Copy CRC F8A9ED24
Track not present in AccurateRip database
Copy OK

Track 2

Filename F:\Music\My Rips\02 - Take Me Home.wav

Peak level 98.8 %
Extraction speed 2.2 X
Track quality 100.0 %
Test CRC 6511932C
Copy CRC 6511932C
Track not present in AccurateRip database
Copy OK

Track 3

Filename F:\Music\My Rips\03 - I Don't Know.wav

Peak level 98.8 %
Extraction speed 2.4 X
Track quality 100.0 %
Test CRC BF583F35
Copy CRC BF583F35
Track not present in AccurateRip database
Copy OK

Track 4

Filename F:\Music\My Rips\04 - Lying Eyes.wav

Peak level 98.3 %
Extraction speed 1.9 X
Track quality 99.9 %
Test CRC 95DB453F
Copy CRC 95DB453F
Track not present in AccurateRip database
Copy OK

Track 5

Filename F:\Music\My Rips\05 - Tomorrow's Mystery.wav

Peak level 98.8 %
Extraction speed 2.7 X
Track quality 100.0 %
Test CRC D57AE08D
Copy CRC D57AE08D
Track not present in AccurateRip database
Copy OK

Track 6

Filename F:\Music\My Rips\06 - The King Has Lost His Crown.wav

Peak level 98.8 %
Extraction speed 3.0 X
Track quality 100.0 %
Test CRC 559168CE
Copy CRC 559168CE
Track not present in AccurateRip database
Copy OK

Track 7

Filename F:\Music\My Rips\07 - Angel (Rehearsal Bonus Track).wav

Peak level 95.9 %
Extraction speed 2.8 X
Track quality 99.9 %
Test CRC 49F0FFFC
Copy CRC 49F0FFFC
Track not present in AccurateRip database
Copy OK

Track 8

Filename F:\Music\My Rips\08 - Hiroshima (Rehearsal Bonus Track).wav

Peak level 98.8 %
Extraction speed 3.3 X
Track quality 100.0 %
Test CRC 78625E94
Copy CRC 78625E94
Track not present in AccurateRip database
Copy OK

Track 9

Filename F:\Music\My Rips\09 - World Victim (Rehearsal Bonus Track).wav

Peak level 98.8 %
Extraction speed 3.1 X
Track quality 99.9 %
Test CRC 73C5F48B
Copy CRC 73C5F48B
Track not present in AccurateRip database
Copy OK


None of the tracks are present in the AccurateRip database

No errors occurred

End of status report

---- CUETools DB Plugin V2.1.6

[CTDB TOCID: ygGHvLHsWZKfHkwQPmXZC_WKxlc-] found
Submit result: ygGHvLHsWZKfHkwQPmXZC_WKxlc- has been confirmed
Track | CTDB Status
1 | (2/2) Accurately ripped
2 | (2/2) Accurately ripped
3 | (2/2) Accurately ripped
4 | (2/2) Accurately ripped
5 | (2/2) Accurately ripped
6 | (2/2) Accurately ripped
7 | (2/2) Accurately ripped
8 | (2/2) Accurately ripped
9 | (2/2) Accurately ripped


==== Log checksum 9DD0953BD82997C0DE012BD4316EA84677B17F3F671153ED552FDA51C2FFE220 ====

cue
REM GENRE "Heavy Metal"
REM DATE 2018
REM DISCID 6E0B2E09
REM COMMENT "ExactAudioCopy v1.3"
PERFORMER "Blacksmith"
TITLE "Gipsy Queen - The Early Years 83-86"
REM COMPOSER ""
FILE "01 - Gipsy Queen.wav" WAVE
TRACK 01 AUDIO
TITLE "Gipsy Queen"
PERFORMER "Blacksmith"
REM COMPOSER ""
INDEX 01 00:00:00
FILE "02 - Take Me Home.wav" WAVE
TRACK 02 AUDIO
TITLE "Take Me Home"
PERFORMER "Blacksmith"
REM COMPOSER ""
INDEX 01 00:00:00
FILE "03 - I Don't Know.wav" WAVE
TRACK 03 AUDIO
TITLE "I Don't Know"
PERFORMER "Blacksmith"
REM COMPOSER ""
INDEX 01 00:00:00
FILE "04 - Lying Eyes.wav" WAVE
TRACK 04 AUDIO
TITLE "Lying Eyes"
PERFORMER "Blacksmith"
REM COMPOSER ""
INDEX 01 00:00:00
FILE "05 - Tomorrow's Mystery.wav" WAVE
TRACK 05 AUDIO
TITLE "Tomorrow's Mystery"
PERFORMER "Blacksmith"
REM COMPOSER ""
INDEX 01 00:00:00
FILE "06 - The King Has Lost His Crown.wav" WAVE
TRACK 06 AUDIO
TITLE "The King Has Lost His Crown"
PERFORMER "Blacksmith"
REM COMPOSER ""
INDEX 01 00:00:00
FILE "07 - Angel (Rehearsal Bonus Track).wav" WAVE
TRACK 07 AUDIO
TITLE "Angel (Rehearsal Bonus Track)"
PERFORMER "Blacksmith"
REM COMPOSER ""
INDEX 01 00:00:00
FILE "08 - Hiroshima (Rehearsal Bonus Track).wav" WAVE
TRACK 08 AUDIO
TITLE "Hiroshima (Rehearsal Bonus Track)"
PERFORMER "Blacksmith"
REM COMPOSER ""
INDEX 01 00:00:00
FILE "09 - World Victim (Rehearsal Bonus Track).wav" WAVE
TRACK 09 AUDIO
TITLE "World Victim (Rehearsal Bonus Track)"
PERFORMER "Blacksmith"
REM COMPOSER ""
INDEX 01 00:00:00

_________________


Top
 Profile E-mail  
 
 
PostPosted: 09 Feb 2019 
Хиппей (support team)
User avatar
Joined: 30 Jul 2007
Posts: 110287
Lоcаtion: Киев (Kyiv, UA)
Age: 45
Name: Andrey
На торренте появился :Special compilation album release from BLACKSMITH includes tracks from their debut single released
in 1985 plus their second single released in 1986.
Also includes demo tracks. Cardboard sleeve packaging, including an inner bag.

:thanx:

Blacksmith [2018 ]Gipsy Queen - The Early Years '83-'86 (Japan-DAKRBNCD- 1519) [flac]

Image

mirror: Uloz l Drop l Narod l M-Cloud

pics
Image

Image

Image

Image

Image

Image

Image

Image

Image

Image

_________________


Top
 Profile E-mail  
 
 
PostPosted: 09 Feb 2019 
Я набрал 1000 сообщений!
Joined: 12 Dec 2008
Posts: 1024
Lоcаtion: BULGARIA
Age: 40
Name: DIMITЪR
Большое спасибо VARVAAR и Pelu!!!! :true: :true: :true:


Top
 Profile  
 
 
PostPosted: 10 Feb 2019 
Хиппей (support team)
User avatar
Joined: 30 Jul 2007
Posts: 110287
Lоcаtion: Киев (Kyiv, UA)
Age: 45
Name: Andrey
Pelu wrote:
Seems Michael Schymygel (Liege Steel member in here) is active in this forum by years.

Really? =))

_________________


Top
 Profile E-mail  
 
 
PostPosted: 10 Feb 2019 
Хиппей (support team)
User avatar
Joined: 30 Jul 2007
Posts: 110287
Lоcаtion: Киев (Kyiv, UA)
Age: 45
Name: Andrey
Разницы между двумя рипами не заметил :vic:
Кроме того, что у Педро потрэковый, а у дядь Миши образом.

Сам альбом 2-3 песнями очень приятен :meloman:

7/10

_________________


Top
 Profile E-mail  
 
 
PostPosted: 10 Feb 2019 
Хиппей (support team)
User avatar
Joined: 30 Jul 2007
Posts: 110287
Lоcаtion: Киев (Kyiv, UA)
Age: 45
Name: Andrey
Запрос закрыт. Топик переносится в "Бухту".
Всем спасибо :thanx:

_________________


Top
 Profile E-mail  
 
 
PostPosted: 10 Feb 2019 
Я набрал 1000 сообщений!
Joined: 12 Dec 2008
Posts: 1024
Lоcаtion: BULGARIA
Age: 40
Name: DIMITЪR
Разницы между двумя рипами не заметил :vic:
Кроме того, что у Педро потрэковый, а у дядь Миши образом.



Разницы огромная между рипами :fingal: :fingal: :fingal:
По звучения рип Pelu нравится больше, но там спектр очень сомнителен :fingal: :fingal:

Image

Рип VARVAAR с больше високих частотьй, но спектр хороший :pardon: :pardon: :pardon:

Image


Top
 Profile  
 
 
PostPosted: 11 Feb 2019 
Хиппей (support team)
User avatar
Joined: 30 Jul 2007
Posts: 110287
Lоcаtion: Киев (Kyiv, UA)
Age: 45
Name: Andrey
Ну я старею уже, могу и не замечать разницы :pardon:

_________________


Top
 Profile E-mail  
 
 
PostPosted: 12 Feb 2019 
Труъ
User avatar
Joined: 28 Mar 2013
Posts: 175
Lоcаtion: Parana-Brazil
Age: 53
Name: Pedro Gabriel Lanza
This is no my rip, I traded it with a person these days. This recording is from greek No Remorse Records label. Interested to know the another rip from japanese edition.


Top
 Profile E-mail  
 
Display posts from previous:  Sort by  
Post new topic Reply to topic  [ 31 posts ]  Go to page Previous  1, 2

All times are UTC + 3 hours


Who is online

Users browsing this forum: No registered users and 2 guests


You cannot post new topics in this forum
You cannot reply to topics in this forum
You cannot edit your posts in this forum
You cannot delete your posts in this forum
You cannot post attachments in this forum

Search for:
Яндекс.Метрика
Powered by phpBB © 2000, 2002, 2005, 2007 phpBB Group