\m/ 80's metal \m/

Информационно-аналитический форум "80 см пыли" (In Search We Trust) "У нас никто никуда не спешит"
Me For You - http://me-4u.com
It is currently 17 Oct 2019

All times are UTC + 3 hours

Spoiler
Chat - temporary registration for foreign users (please leave your application here)







Post new topic Reply to topic  [ 7 posts ] 
Author Message
 
PostPosted: 14 Aug 2011 
Работнечег
User avatar
Joined: 28 Aug 2007
Posts: 6031
Lоcаtion: г. Москва
Age: 30
Name: Дима
Image

Band: Atro
Album: Breaker
Year: 1996
Label: UGK Discos
Genre: Heavy Metal
Coutry: Brazil
Format: Flac + Log + Cue + Covers / mp3@320 + Covers
Size: 268 Mb/94 Mb

Line-Up:
Eduardo Schein — vocals & backing vocals
Paulo Rick — electric and acoustic guitars & backin' vocals
Marivan Ugoski — bass & backing vocals
Luke Faro — drums & backing vocals


Tracklist:
1. 3220 02:11
2. Playing with Fire 05:02
3. Time to Rock 04:19
4. ...And Nobody Cares 04:04
5. Born 2 B Loved 04:34
6. Drifter 04:09
7. Livin' in the Eye of Storm 06:04
8. Shine in the Night 04:08
9. Never Hold Back 03:12

LOG
Exact Audio Copy V0.99 prebeta 5 from 4. May 2009

EAC extraction logfile from 27. July 2011, 11:20

Atro / Breaker

Used drive : PIONEER DVD-RW DVR-116D Adapter: 0 ID: 0

Read mode : Secure
Utilize accurate stream : Yes
Defeat audio cache : Yes
Make use of C2 pointers : No

Read offset correction : 96
Overread into Lead-In and Lead-Out : No
Fill up missing offset samples with silence : Yes
Delete leading and trailing silent blocks : No
Null samples used in CRC calculations : Yes
Used interface : Native Win32 interface for Win NT & 2000

Used output format : User Defined Encoder
Selected bitrate : 32 kBit/s
Quality : High
Add ID3 tag : No
Command line compressor : C:\Program Files\Exact Audio Copy\Flac\flac.exe
Additional command line options : -6 -V %s


TOC of the extracted CD

Track | Start | Length | Start sector | End sector
---------------------------------------------------------
1 | 0:00.30 | 2:11.70 | 30 | 9924
2 | 2:12.25 | 5:02.25 | 9925 | 32599
3 | 7:14.50 | 4:19.16 | 32600 | 52040
4 | 11:33.66 | 4:04.16 | 52041 | 70356
5 | 15:38.07 | 4:34.27 | 70357 | 90933
6 | 20:12.34 | 4:09.03 | 90934 | 109611
7 | 24:21.37 | 6:04.54 | 109612 | 136965
8 | 30:26.16 | 4:08.05 | 136966 | 155570
9 | 34:34.21 | 3:12.49 | 155571 | 170019


Range status and errors

Selected range

Filename D:\Музыка\Lossless\Atro - Breaker (1996)\Atro - Breaker.wav

Peak level 100.0 %
Range quality 100.0 %
Copy CRC B5C1AF99
Copy OK

No errors occurred


AccurateRip summary

Track 1 not present in database
Track 2 not present in database
Track 3 not present in database
Track 4 not present in database
Track 5 not present in database
Track 6 not present in database
Track 7 not present in database
Track 8 not present in database
Track 9 not present in database

None of the tracks are present in the AccurateRip database

End of status report

CUE
REM GENRE "Speed Metal"
REM DATE 1996
REM DISCID 7008DA09
REM COMMENT "ExactAudioCopy v0.99pb5"
PERFORMER "Atro"
TITLE "Breaker"
FILE "Atro - Breaker.flac" WAVE
TRACK 01 AUDIO
TITLE "3220"
PERFORMER "Atro"
INDEX 00 00:00:00
INDEX 01 00:00:30
TRACK 02 AUDIO
TITLE "Playing With Fire"
PERFORMER "Atro"
INDEX 01 02:12:25
TRACK 03 AUDIO
TITLE "Time To Rock"
PERFORMER "Atro"
INDEX 01 07:14:50
TRACK 04 AUDIO
TITLE "... And Nobody Cares"
PERFORMER "Atro"
INDEX 01 11:33:66
TRACK 05 AUDIO
TITLE "Born 2 B Loved"
PERFORMER "Atro"
INDEX 01 15:38:07
TRACK 06 AUDIO
TITLE "Drifter"
PERFORMER "Atro"
INDEX 01 20:12:34
TRACK 07 AUDIO
TITLE "Livin' The Eye Of Storm"
PERFORMER "Atro"
INDEX 01 24:21:37
TRACK 08 AUDIO
TITLE "Shine In The Night"
PERFORMER "Atro"
INDEX 01 30:26:16
TRACK 09 AUDIO
TITLE "Never Hold Back"
PERFORMER "Atro"
INDEX 01 34:34:21

Spectrum
Image


MP3@320
FLAC

На втором альбоме группа исполняла музыку ближе к спид/трэшу, мне тогда только вокал не очень понравился. Здесь же чистый хэви, без всяких заигрываний с другими стилями и модными фишками. Добротный материал, и вокалист здесь мне намного больше понравился.


Top
 Profile E-mail  
 
 
PostPosted: 15 Aug 2011 
Хиппей (support team)
User avatar
Joined: 30 Jul 2007
Posts: 114881
Lоcаtion: Киев (Kyiv, UA)
Age: 46
Name: Andrey
:thanx:

mirror: MultiUp l Narod

Какая простая и милая обложка :true:

_________________


Top
 Profile E-mail  
 
 
PostPosted: 17 Aug 2011 
ТрэшЭрос
User avatar
Joined: 18 Jul 2011
Posts: 2305
Lоcаtion: Гулькевичи
Age: 44
Name: Александр
:thanx:

_________________
Thrash no trash!!!


Top
 Profile E-mail  
 
 
PostPosted: 17 Aug 2011 
спирт 100%
User avatar
Joined: 22 Sep 2008
Posts: 4474
Age: 48
Name: Саня
:thanx: Дим,Спасибо!


Top
 Profile  
 
 
PostPosted: 17 Aug 2011 
Генеральный thrasher
User avatar
Joined: 03 Oct 2008
Posts: 3738
Lоcаtion: Ханты-Мансийский АО
Age: 44
Name: Сергей
Спасибо,Дима!


Top
 Profile  
 
 
PostPosted: 08 Oct 2017 
Хиппей (support team)
User avatar
Joined: 30 Jul 2007
Posts: 114881
Lоcаtion: Киев (Kyiv, UA)
Age: 46
Name: Andrey
church wrote:
Atro - Breaker (1996)

Занятно, а чему этого альбома нет на М-А? :arrow: https://www.metal-archives.com/bands/At ... iscography :scratch:

_________________


Top
 Profile E-mail  
 
 
PostPosted: 08 Oct 2017 
Хиппей (support team)
User avatar
Joined: 30 Jul 2007
Posts: 114881
Lоcаtion: Киев (Kyiv, UA)
Age: 46
Name: Andrey
Ааа, понял - название сменили :pardon: https://www.metal-archives.com/bands/Atro/3540416220

_________________


Top
 Profile E-mail  
 
Display posts from previous:  Sort by  
Post new topic Reply to topic  [ 7 posts ] 

All times are UTC + 3 hours


Who is online

Users browsing this forum: No registered users and 1 guest


You cannot post new topics in this forum
You cannot reply to topics in this forum
You cannot edit your posts in this forum
You cannot delete your posts in this forum
You cannot post attachments in this forum

Search for:
Яндекс.Метрика
cron
Powered by phpBB © 2000, 2002, 2005, 2007 phpBB Group