\m/ 80's metal \m/

Информационно-аналитический форум "80 см пыли" (In Search We Trust) "У нас никто никуда не спешит"
Me For You - http://me-4u.com
It is currently 16 Oct 2019

All times are UTC + 3 hours

Spoiler
Chat - temporary registration for foreign users (please leave your application here)







Post new topic Reply to topic  [ 3 posts ] 
Author Message
 
PostPosted: 28 Jul 2011 
Труъ
User avatar
Joined: 15 Dec 2008
Posts: 131
Lоcаtion: Донбасс
Age: 46
Name: Евгений
Image

Year: 2002
Style: Heavy Metal
Country: Netherlands
Format: Flac + Cue + Log
Size: 383,44 Mb + 3%

Image

Line-Up:

Ron Gershwin - Vocals
Marc Gershwin - Guitars
Harold Cucken - Guitars
Steve Highwood - Bass
Peter Van De Sluijs - Drums

Tracklist:

1. Beyond the Storm 01:31
2. Quasimodo 03:00
3. White Spirit 03:55
4. Heavy Metal Invasion 04:10
5. All Over Now 05:31
6. Blood, Sweat & Tears 04:26
7. Spoken Dreams 04:25
8. Dark Roses 04:39
9. The Day After 06:07
10. Swords & Religion 04:30
11. Heat of the Night 03:55
12. Steal My Heart Away 03:39
13. White Spirit (Live) 04:06

Total playing time: 53:54

Tracks 01-09 are from the 1986 LP The Day After.
Tracks 10-11 are never released album recordings.
Track 12 is a never released single (1989).
Track 13 is a never released live recording taken from a reunion gig the band did in Den Bosch, Holland 1997.


LOG
Exact Audio Copy V0.99 prebeta 5 from 4. May 2009

EAC extraction logfile from 28. July 2011, 13:26

Allied Forces / The Forces Strike Back

Used drive : PIONEER DVD-RW DVR-106D Adapter: 1 ID: 0

Read mode : Secure
Utilize accurate stream : Yes
Defeat audio cache : Yes
Make use of C2 pointers : No

Read offset correction : 48
Overread into Lead-In and Lead-Out : No
Fill up missing offset samples with silence : Yes
Delete leading and trailing silent blocks : No
Null samples used in CRC calculations : Yes
Used interface : Installed external ASPI interface

Used output format : User Defined Encoder
Selected bitrate : 32 kBit/s
Quality : High
Add ID3 tag : No
Command line compressor : C:\Program Files\Exact Audio Copy\Flac\flac.exe
Additional command line options : -6 -V %s


TOC of the extracted CD

Track | Start | Length | Start sector | End sector
---------------------------------------------------------
1 | 0:00.00 | 1:30.43 | 0 | 6792
2 | 1:30.43 | 3:00.32 | 6793 | 20324
3 | 4:31.00 | 3:55.23 | 20325 | 37972
4 | 8:26.23 | 4:10.20 | 37973 | 56742
5 | 12:36.43 | 5:31.00 | 56743 | 81567
6 | 18:07.43 | 4:25.65 | 81568 | 101507
7 | 22:33.33 | 4:25.33 | 101508 | 121415
8 | 26:58.66 | 4:39.17 | 121416 | 142357
9 | 31:38.08 | 6:07.08 | 142358 | 169890
10 | 37:45.16 | 4:29.53 | 169891 | 190118
11 | 42:14.69 | 3:55.30 | 190119 | 207773
12 | 46:10.24 | 3:39.32 | 207774 | 224230
13 | 49:49.56 | 4:06.06 | 224231 | 242686


Range status and errors

Selected range

Filename M:\metalmadness\Allied Forces - The Forces Strike Back.wav

Peak level 100.0 %
Range quality 100.0 %
Copy CRC 0CCABD2E
Copy OK

No errors occurred


AccurateRip summary

Track 1 accurately ripped (confidence 1) [56A0683C]
Track 2 accurately ripped (confidence 1) [65D3F9C4]
Track 3 accurately ripped (confidence 1) [3DE22E9D]
Track 4 accurately ripped (confidence 1) [9B2F8FF1]
Track 5 accurately ripped (confidence 1) [4166899D]
Track 6 accurately ripped (confidence 1) [6020EECD]
Track 7 accurately ripped (confidence 1) [018E9B26]
Track 8 accurately ripped (confidence 1) [CA59D7BD]
Track 9 accurately ripped (confidence 1) [C8B26174]
Track 10 accurately ripped (confidence 1) [6A7FAD68]
Track 11 accurately ripped (confidence 1) [AA2B1242]
Track 12 accurately ripped (confidence 1) [A50D3418]
Track 13 accurately ripped (confidence 1) [2530B18F]

All tracks accurately ripped

End of status report

CUE
REM GENRE "Heavy Metal"
REM DATE 2002
REM DISCID B50CA30D
REM COMMENT "ExactAudioCopy v0.99pb5"
PERFORMER "Allied Forces"
TITLE "The Forces Strike Back"
FILE "Allied Forces - The Forces Strike Back.flac" WAVE
TRACK 01 AUDIO
TITLE "Beyond The Storm"
PERFORMER "Allied Forces"
FLAGS DCP
INDEX 01 00:00:00
TRACK 02 AUDIO
TITLE "Quasimodo"
PERFORMER "Allied Forces"
FLAGS DCP
INDEX 01 01:30:43
TRACK 03 AUDIO
TITLE "White Spirit"
PERFORMER "Allied Forces"
FLAGS DCP
INDEX 01 04:31:00
TRACK 04 AUDIO
TITLE "Heavy Metal Invasion"
PERFORMER "Allied Forces"
FLAGS DCP
INDEX 01 08:26:23
TRACK 05 AUDIO
TITLE "All Over Now"
PERFORMER "Allied Forces"
FLAGS DCP
INDEX 01 12:36:43
TRACK 06 AUDIO
TITLE "Blood, Sweat & Tears"
PERFORMER "Allied Forces"
FLAGS DCP
INDEX 01 18:07:43
TRACK 07 AUDIO
TITLE "Spoken Dreams"
PERFORMER "Allied Forces"
FLAGS DCP
INDEX 01 22:33:33
TRACK 08 AUDIO
TITLE "Dark Roses"
PERFORMER "Allied Forces"
FLAGS DCP
INDEX 01 26:58:66
TRACK 09 AUDIO
TITLE "The Day After"
PERFORMER "Allied Forces"
FLAGS DCP
INDEX 01 31:38:08
TRACK 10 AUDIO
TITLE "Swords & Religion"
PERFORMER "Allied Forces"
FLAGS DCP
INDEX 01 37:45:16
TRACK 11 AUDIO
TITLE "Heat Of The Night"
PERFORMER "Allied Forces"
FLAGS DCP
INDEX 00 42:11:24
INDEX 01 42:14:69
TRACK 12 AUDIO
TITLE "Steal My Heart Away"
PERFORMER "Allied Forces"
FLAGS DCP
INDEX 00 46:08:54
INDEX 01 46:10:24
TRACK 13 AUDIO
TITLE "White Spirit (Live)"
PERFORMER "Allied Forces"
FLAGS DCP
INDEX 00 49:47:11
INDEX 01 49:49:56

MMT: speedica

Allied Forces - The Forces Strike Back


Top
 Profile  
 
 
PostPosted: 29 Jul 2011 
Хиппей (support team)
User avatar
Joined: 30 Jul 2007
Posts: 114840
Lоcаtion: Киев (Kyiv, UA)
Age: 46
Name: Andrey
:thanx:
mirror: MultiUp l Narod

_________________


Top
 Profile E-mail  
 
 
PostPosted: 30 Jul 2011 
А может смените мне статус?..
Joined: 03 Jul 2009
Posts: 885
Lоcаtion: Serbia
Name: Laki
Thank you !!!!


Top
 Profile E-mail  
 
Display posts from previous:  Sort by  
Post new topic Reply to topic  [ 3 posts ] 

All times are UTC + 3 hours


Who is online

Users browsing this forum: No registered users and 2 guests


You cannot post new topics in this forum
You cannot reply to topics in this forum
You cannot edit your posts in this forum
You cannot delete your posts in this forum
You cannot post attachments in this forum

Search for:
Яндекс.Метрика
Powered by phpBB © 2000, 2002, 2005, 2007 phpBB Group