\m/ 80's metal \m/

Информационно-аналитический форум "80 см пыли" (In Search We Trust) "У нас никто никуда не спешит"
Me For You - http://me-4u.com
It is currently 17 Sep 2019

All times are UTC + 3 hours

Spoiler
Chat - temporary registration for foreign users (please leave your application here)







Post new topic Reply to topic  [ 3 posts ] 
Author Message
 
PostPosted: 20 Jul 2011 
Генеральный thrasher
User avatar
Joined: 03 Oct 2008
Posts: 3730
Lоcаtion: Ханты-Мансийский АО
Age: 44
Name: Сергей
Image

Year:1989 (2009 Re-Issue)
Style:Heavy/Thrash Metal
Country:Serbia
Audio:Flac+Cue+Log+Scans
Size:318Mb
Label:Area Death Productions

Line-Up:
Duwsan "Francuz" Uvalic - Vocals
Milan "Vuja" Vuja - Guitars
Dragan "Radoja" Radojcic - Guitars
Mirko "Zile" Zivkovic - Bass
Miodrag "Stavra" Balaban - Drums

Tracklist:
1.To Hell And Back 03:24
2.Steel in My Breath 05:29
3.Burn in Flames 03:22
4.Killer Machine 03:11
5.Big Ferry Eyes 03:24
6.Loud, Proud, And Deaf 03:33
7.Matriarch 02:39
8.Forever Survive 03:26
9.Ramzes II 03:22
10.Rough Sound 02:32
11.Annathema 02:52

Cue
REM GENRE "Thrash Metal"
REM DATE 1989
REM DISCID 9208D90B
REM COMMENT "ExactAudioCopy v0.99pb5"
PERFORMER "Annathema"
TITLE "Annathema"
FILE "Annathema - Annathema.flac" WAVE
TRACK 01 AUDIO
TITLE "To Hell And Back"
PERFORMER "Annathema"
INDEX 01 00:00:00
TRACK 02 AUDIO
TITLE "Steel In My Breath"
PERFORMER "Annathema"
INDEX 01 03:27:61
TRACK 03 AUDIO
TITLE "Burn In Flames"
PERFORMER "Annathema"
INDEX 01 09:00:55
TRACK 04 AUDIO
TITLE "Killer Machine"
PERFORMER "Annathema"
INDEX 01 12:25:72
TRACK 05 AUDIO
TITLE "Big Ferry Eyes"
PERFORMER "Annathema"
INDEX 01 15:40:25
TRACK 06 AUDIO
TITLE "Loud, Proud, And Deaf"
PERFORMER "Annathema"
INDEX 01 19:07:07
TRACK 07 AUDIO
TITLE "Matriarch"
PERFORMER "Annathema"
INDEX 01 22:42:45
TRACK 08 AUDIO
TITLE "Forever Survive"
PERFORMER "Annathema"
INDEX 01 25:24:46
TRACK 09 AUDIO
TITLE "Ramzes II"
PERFORMER "Annathema"
INDEX 01 28:53:31
TRACK 10 AUDIO
TITLE "Rough Sound"
PERFORMER "Annathema"
INDEX 01 32:18:58
TRACK 11 AUDIO
TITLE "Annathema"
PERFORMER "Annathema"
INDEX 01 34:53:57


Log
Exact Audio Copy V0.99 prebeta 5 from 4. May 2009

Отчёт EAC об извлечении, выполненном 19. июля 2011, 10:02

Annathema / Annathema

Дисковод: TSSTcorpCDDVDW SH-S202N Adapter: 0 ID: 1

Режим чтения : Достоверность
Использование точного потока : Да
Отключение кэша аудио : Да
Использование указателей C2 : Нет

Коррекция смещения при чтении : 6
Способность читать области Lead-in и Lead-out : Нет
Заполнение пропущенных сэмплов тишиной : Да
Удаление блоков с тишиной в начале и конце : Нет
При вычислениях CRC использовались нулевые сэмплы : Да
Интерфейс : Встроенный Win32-интерфейс для Win NT/2000

Выходной формат : Пользовательский кодировщик
Выбранный битрейт : 768 kBit/s
Качество : Высокий
Добавление ID3-тэга : Нет
Утилита сжатия : C:\Program Files\Exact Audio Copy\FLAC\FLAC.EXE
Дополнительные параметры : -6 -V -T "ARTIST=%a" -T "TITLE=%t" -T "ALBUM=%g" -T "DATE=%y" -T "TRACKNUMBER=%n" -T "GENRE=%m" -T "COMMENT=%e" %s -o %d


TOC извлечённого CD

Трек | Старт | Длительность | Начальный сектор | Конечный сектор
---------------------------------------------------------------------
1 | 0:00.00 | 3:27.61 | 0 | 15585
2 | 3:27.61 | 5:32.69 | 15586 | 40554
3 | 9:00.55 | 3:25.17 | 40555 | 55946
4 | 12:25.72 | 3:14.28 | 55947 | 70524
5 | 15:40.25 | 3:26.57 | 70525 | 86031
6 | 19:07.07 | 3:35.38 | 86032 | 102194
7 | 22:42.45 | 2:42.01 | 102195 | 114345
8 | 25:24.46 | 3:28.60 | 114346 | 130005
9 | 28:53.31 | 3:25.27 | 130006 | 145407
10 | 32:18.58 | 2:34.74 | 145408 | 157031
11 | 34:53.57 | 2:51.74 | 157032 | 169930


Характеристики диапазона извлечения и сообщения об ошибках

Выбранный диапазон

Имя файла E:\Лоси\A\Annathema - Annathema.wav

Пиковый уровень 97.7 %
Качество диапазона 100.0 %
CRC копии D3BDE27D
Копирование... OK

Ошибок не произошло


AccurateRip: сводка

Трек 1 нет в базе данных
Трек 2 нет в базе данных
Трек 3 нет в базе данных
Трек 4 нет в базе данных
Трек 5 нет в базе данных
Трек 6 нет в базе данных
Трек 7 нет в базе данных
Трек 8 нет в базе данных
Трек 9 нет в базе данных
Трек 10 нет в базе данных
Трек 11 нет в базе данных

Ни одного трека нет в базе AccurateRip

Конец отчёта



Annathema


Top
 Profile  
 
 
PostPosted: 21 Jul 2011 
ТрэшЭрос
User avatar
Joined: 18 Jul 2011
Posts: 2304
Lоcаtion: Гулькевичи
Age: 44
Name: Александр
Благодарю :true:

_________________
Thrash no trash!!!


Top
 Profile E-mail  
 
 
PostPosted: 21 Jul 2011 
Хиппей (support team)
User avatar
Joined: 30 Jul 2007
Posts: 114368
Lоcаtion: Киев (Kyiv, UA)
Age: 46
Name: Andrey
Сереж, спасибо! :thanx:
mirror: MultiUp l Narod

_________________


Top
 Profile E-mail  
 
Display posts from previous:  Sort by  
Post new topic Reply to topic  [ 3 posts ] 

All times are UTC + 3 hours


Who is online

Users browsing this forum: No registered users and 1 guest


You cannot post new topics in this forum
You cannot reply to topics in this forum
You cannot edit your posts in this forum
You cannot delete your posts in this forum
You cannot post attachments in this forum

Search for:
Яндекс.Метрика
Powered by phpBB © 2000, 2002, 2005, 2007 phpBB Group