\m/ 80's metal \m/

Информационно-аналитический форум "80 см пыли" (In Search We Trust) "У нас никто никуда не спешит"
Me For You - http://me-4u.com
It is currently 15 Oct 2019

All times are UTC + 3 hours

Spoiler
Chat - temporary registration for foreign users (please leave your application here)







Post new topic Reply to topic  [ 16 posts ] 
Author Message
 
PostPosted: 14 Jul 2011 
Генеральный thrasher
User avatar
Joined: 03 Oct 2008
Posts: 3738
Lоcаtion: Ханты-Мансийский АО
Age: 44
Name: Сергей
Image

Year:1991 (2009 Re-Issue)
Style:Heavy/Thrash Metal
Country:Serbia
Audio:Flac+Cue+Log+Scans
Size:283Mb
Source:my CD
Label:Area Death Productions

Line-Up:
Duwsan "Francus" Uvalic - Vocals
Milan "Vuja" Vujik - Guitars
Dragan "Radoja" Radojcic - Guitars
Mirko "Zile" Zivkovic - Bass
Miodrag "Stavra" Balaban - Drums

Tracklist:
1. Intro: Wasteland 01:32
2. Road Warrior 06:03
3. Dead End Street 03:12
4. Confession 01:40
5. Ride the Shooting Star 05:51
6. Empire of Noise 03:47
7. Sleepless Night 04:27
8. Nuclear Jazz 01:13
9. Pray with Blood (For My Soul) 04:20
10. Sympthom of the Universe 05:17

Log
Exact Audio Copy V0.99 prebeta 5 from 4. May 2009

Отчёт EAC об извлечении, выполненном 13. июля 2011, 10:03

Annathema / Empire Of Noise (reissue)

Дисковод: TSSTcorpCDDVDW SH-S202N Adapter: 0 ID: 1

Режим чтения : Достоверность
Использование точного потока : Да
Отключение кэша аудио : Да
Использование указателей C2 : Нет

Коррекция смещения при чтении : 6
Способность читать области Lead-in и Lead-out : Нет
Заполнение пропущенных сэмплов тишиной : Да
Удаление блоков с тишиной в начале и конце : Нет
При вычислениях CRC использовались нулевые сэмплы : Да
Интерфейс : Встроенный Win32-интерфейс для Win NT/2000

Выходной формат : Пользовательский кодировщик
Выбранный битрейт : 768 kBit/s
Качество : Высокий
Добавление ID3-тэга : Нет
Утилита сжатия : C:\Program Files\Exact Audio Copy\FLAC\FLAC.EXE
Дополнительные параметры : -6 -V -T "ARTIST=%a" -T "TITLE=%t" -T "ALBUM=%g" -T "DATE=%y" -T "TRACKNUMBER=%n" -T "GENRE=%m" -T "COMMENT=%e" %s -o %d


TOC извлечённого CD

Трек | Старт | Длительность | Начальный сектор | Конечный сектор
---------------------------------------------------------------------
1 | 0:00.00 | 1:32.64 | 0 | 6963
2 | 1:32.64 | 6:03.08 | 6964 | 34196
3 | 7:35.72 | 3:12.69 | 34197 | 48665
4 | 10:48.66 | 1:40.08 | 48666 | 56173
5 | 12:28.74 | 5:51.26 | 56174 | 82524
6 | 18:20.25 | 3:47.34 | 82525 | 99583
7 | 22:07.59 | 4:27.19 | 99584 | 119627
8 | 26:35.03 | 1:23.22 | 119628 | 125874
9 | 27:58.25 | 4:20.24 | 125875 | 145398
10 | 32:18.49 | 5:17.48 | 145399 | 169221


Характеристики диапазона извлечения и сообщения об ошибках

Выбранный диапазон

Имя файла E:\Лоси\A\Annathema - Empire Of Noise (reissue).wav

Подозрительная позиция 0:36:10

Пиковый уровень 100.0 %
Качество диапазона 99.7 %
CRC копии 08FAE51D
Копирование завершено

Были ошибки


AccurateRip: сводка

Трек 1 нет в базе данных
Трек 2 нет в базе данных
Трек 3 нет в базе данных
Трек 4 нет в базе данных
Трек 5 нет в базе данных
Трек 6 нет в базе данных
Трек 7 нет в базе данных
Трек 8 нет в базе данных
Трек 9 нет в базе данных
Трек 10 нет в базе данных

Ни одного трека нет в базе AccurateRip

Конец отчёта


Cue
REM GENRE "Speed Metal"
REM DATE 2009
REM DISCID 7C08D00A
REM COMMENT "ExactAudioCopy v0.99pb5"
PERFORMER "Annathema"
TITLE "Empire Of Noise (reissue)"
FILE "Annathema - Empire Of Noise (reissue).flac" WAVE
TRACK 01 AUDIO
TITLE "Wasteland (intro)"
PERFORMER "Annathema"
INDEX 01 00:00:00
TRACK 02 AUDIO
TITLE "Road Warrior"
PERFORMER "Annathema"
INDEX 01 01:32:64
TRACK 03 AUDIO
TITLE "Dead End Street"
PERFORMER "Annathema"
INDEX 01 07:35:72
TRACK 04 AUDIO
TITLE "Confession"
PERFORMER "Annathema"
INDEX 01 10:48:66
TRACK 05 AUDIO
TITLE "Ride The Shooting Star"
PERFORMER "Annathema"
INDEX 01 12:28:74
TRACK 06 AUDIO
TITLE "Empire Of Noise"
PERFORMER "Annathema"
INDEX 01 18:20:25
TRACK 07 AUDIO
TITLE "Sleepless Night"
PERFORMER "Annathema"
INDEX 01 22:07:59
TRACK 08 AUDIO
TITLE "Nuclear Jazz"
PERFORMER "Annathema"
INDEX 01 26:35:03
TRACK 09 AUDIO
TITLE "Pray With Your Blood (For My Soul)"
PERFORMER "Annathema"
INDEX 01 27:58:25
TRACK 10 AUDIO
TITLE "Symptom Of The Universe"
PERFORMER "Annathema"
INDEX 01 32:18:49



Empire Of Noise


Top
 Profile  
 
 
PostPosted: 14 Jul 2011 
Генеральный thrasher
User avatar
Joined: 03 Oct 2008
Posts: 3738
Lоcаtion: Ханты-Мансийский АО
Age: 44
Name: Сергей
Любителям перекидывать чужих лосей на Рутрэкер - просьба этого не делать!Альбом для форумчан... :true:


Top
 Profile  
 
 
PostPosted: 15 Jul 2011 
Работнечег
User avatar
Joined: 28 Aug 2007
Posts: 6027
Lоcаtion: г. Москва
Age: 30
Name: Дима
Спасибо Серег! Так я и не дошел до этого альбома в свое время ...


Top
 Profile E-mail  
 
 
PostPosted: 16 Jul 2011 
дядя Миша
User avatar
Joined: 17 Oct 2008
Posts: 3189
Lоcаtion: USSR
Age: 57
Name: Khy
Спасибо , Серый! Не слушал их.


Top
 Profile  
 
 
PostPosted: 16 Jul 2011 
Хиппей (support team)
User avatar
Joined: 30 Jul 2007
Posts: 114829
Lоcаtion: Киев (Kyiv, UA)
Age: 46
Name: Andrey
:thanx:
mirror: MultiUp l Narod

_________________


Top
 Profile E-mail  
 
 
PostPosted: 16 Jul 2011 
Генеральный thrasher
User avatar
Joined: 03 Oct 2008
Posts: 3738
Lоcаtion: Ханты-Мансийский АО
Age: 44
Name: Сергей
Первый альбом заливать на форум?


Top
 Profile  
 
 
PostPosted: 16 Jul 2011 
Хиппей (support team)
User avatar
Joined: 30 Jul 2007
Posts: 114829
Lоcаtion: Киев (Kyiv, UA)
Age: 46
Name: Andrey
Ага :dance:
Куда ж его еще девать-то? :pardon:

_________________


Top
 Profile E-mail  
 
 
PostPosted: 18 Jul 2011 
дядя Миша
User avatar
Joined: 17 Oct 2008
Posts: 3189
Lоcаtion: USSR
Age: 57
Name: Khy
Серый , залей лучше его ( первый альбом) на рутрекер . если возможно.


Top
 Profile  
 
 
PostPosted: 18 Jul 2011 
Хиппей (support team)
User avatar
Joined: 30 Jul 2007
Posts: 114829
Lоcаtion: Киев (Kyiv, UA)
Age: 46
Name: Andrey
thorbeorn wrote:
Любителям перекидывать чужих лосей на Рутрэкер - просьба этого не делать!

VARVAAR wrote:
Серый , залей лучше его ( первый альбом) на рутрекер . если возможно

:crazy:

_________________


Top
 Profile E-mail  
 
 
PostPosted: 19 Jul 2011 
Генеральный thrasher
User avatar
Joined: 03 Oct 2008
Posts: 3738
Lоcаtion: Ханты-Мансийский АО
Age: 44
Name: Сергей
VARVAAR wrote:
Серый , залей лучше его ( первый альбом) на рутрекер . если возможно.


Залью... :losik:


Top
 Profile  
 
 
PostPosted: 19 Jul 2011 
Хиппей (support team)
User avatar
Joined: 30 Jul 2007
Posts: 114829
Lоcаtion: Киев (Kyiv, UA)
Age: 46
Name: Andrey
Опа. А как же принципы? :shok:
Или типа свой лось на торренте это привычное дело? :oops:

_________________


Top
 Profile E-mail  
 
 
PostPosted: 19 Jul 2011 
Генеральный thrasher
User avatar
Joined: 03 Oct 2008
Posts: 3738
Lоcаtion: Ханты-Мансийский АО
Age: 44
Name: Сергей
Раз уважаемый человек просит...Не хочется отказывать.Раздам и снесу тему.


Top
 Profile  
 
 
PostPosted: 20 Jul 2011 
Хиппей (support team)
User avatar
Joined: 30 Jul 2007
Posts: 114829
Lоcаtion: Киев (Kyiv, UA)
Age: 46
Name: Andrey
thorbeorn wrote:
Раздам и снесу тему.

:shok: ....

_________________


Top
 Profile E-mail  
 
 
PostPosted: 20 Jul 2011 
Хиппей (support team)
User avatar
Joined: 30 Jul 2007
Posts: 114829
Lоcаtion: Киев (Kyiv, UA)
Age: 46
Name: Andrey
thorbeorn wrote:
Раз уважаемый человек просит...

А, кстати, я вот чего вспомнил :arrow: viewtopic.php?f=19&t=9243
То есть, зачем засорят трекер лишними темами и вообще терять время на оформление раздачи и затем её удалять, если есть более простой способ :vic:
Угу, и остальные пиринговые животинки никто не отменять - децлик, суслик, мирка, ослик, да та же аська или скайп =)

Серёг, у нас, как ни странно больше трех лет работает свой хаб - 80s-metal.no-ip.info :hi:

_________________


Top
 Profile E-mail  
 
 
PostPosted: 24 Jul 2011 
дядя Миша
User avatar
Joined: 17 Oct 2008
Posts: 3189
Lоcаtion: USSR
Age: 57
Name: Khy
Спасибо , Серый ! качнул здесь. Рутрекер норм, а говна везде валом.


Top
 Profile  
 
 
PostPosted: 24 Jul 2011 
ТрэшЭрос
User avatar
Joined: 18 Jul 2011
Posts: 2305
Lоcаtion: Гулькевичи
Age: 44
Name: Александр
:thanx:

_________________
Thrash no trash!!!


Top
 Profile E-mail  
 
Display posts from previous:  Sort by  
Post new topic Reply to topic  [ 16 posts ] 

All times are UTC + 3 hours


Who is online

Users browsing this forum: No registered users and 1 guest


You cannot post new topics in this forum
You cannot reply to topics in this forum
You cannot edit your posts in this forum
You cannot delete your posts in this forum
You cannot post attachments in this forum

Search for:
Яндекс.Метрика
Powered by phpBB © 2000, 2002, 2005, 2007 phpBB Group