\m/ 80's metal \m/

Информационно-аналитический форум "80 см пыли" (In Search We Trust) "У нас никто никуда не спешит"
Me For You - http://me-4u.com
It is currently 20 Oct 2019

All times are UTC + 3 hours

Spoiler
Chat - temporary registration for foreign users (please leave your application here)







Post new topic Reply to topic  [ 35 posts ]  Go to page Previous  1, 2
Author Message
 
PostPosted: 22 Nov 2012 
Хиппей (support team)
User avatar
Joined: 30 Jul 2007
Posts: 114953
Lоcаtion: Киев (Kyiv, UA)
Age: 46
Name: Andrey
spiralarch wrote:
не имея оригинала, отличить подделку бывает зачастую невозможно

Куда катится мир?.. печально... :(

Правильно он катится. К чисто цифровым носителям :true:

_________________


Top
 Profile E-mail  
 
 
PostPosted: 22 Nov 2012 
Я набрал 1000 сообщений!
User avatar
Joined: 25 Dec 2008
Posts: 1545
Age: 44
Name: Павел
Scatterbrain wrote:
Правильно он катится. К чисто цифровым носителям

Мечтатель. Много ты цифровых копий прикупил? По крайней мере, пока люди предпочитают покупать на твердых носителях. А на цифровые носители - пока только охотники за халявой. :benya:


Top
 Profile  
 
 
PostPosted: 05 Dec 2012 
Работнечег
User avatar
Joined: 28 Aug 2007
Posts: 6035
Lоcаtion: г. Москва
Age: 30
Name: Дима
Серёг, сейчас пираты прекрасно научились копировать все коды. а с другой стороны, не на всех настоящих дисках они могут быть. т.е. не имея оригинала, отличить подделку бывает зачастую невозможно.

Сейчас боюсь зачастую оригинал от подделки вообще не отличишь, по некоторым дискам, токо если диск куплен давно, когда пиратки ещё точно не было)
В данном конкретном случае, IFPI на диске нет. Попробую написать челу с ебэя, у которого 99% оригинал и спросить про наличие IFPI на его диске.


Top
 Profile E-mail  
 
 
PostPosted: 05 Dec 2012 
Работнечег
User avatar
Joined: 28 Aug 2007
Posts: 6035
Lоcаtion: г. Москва
Age: 30
Name: Дима
Во, быстро как ответили! Написали, что не было на первом прессе IFPI. Так что хз, но надеюсь, что оригинал) Из особенностей, отмечу бумагу разного качества, в буклете два разворота, первый (внешний) выполнен из плотной хорошей бумаги, на которой не остается отпечатков, внутренний на обычной тонкой бумаге. Впринципе вот дисков с плотной бумагой я держал в руках очень мало и это всё были старые прессы как раз 90-х годов, хотя не удивлюсь, если и качество бумаги сейчас пираты подделывают)


Top
 Profile E-mail  
 
 
PostPosted: 05 Dec 2012 
Доктор энтомологии
User avatar
Joined: 22 Jan 2009
Posts: 9927
Lоcаtion: Даугавпилс
Age: 44
Name: Алексей
в свое время слушал на кассете несколько лет (10-15 - не помню) назад (однако в DeathCity про эту банду инфа была (номер с рожей Глена Бентона)... тогда старался все искать, что упоминалось в изданиях, вклучая макмастерс дес), попробую утянуть и переслушать заново.
Ранее казалось ничего особенного в музыцировании не заметил (в прочем тада по блеку и дету перся) :oops:


Top
 Profile  
 
 
PostPosted: 13 Jul 2013 
Хиппей (support team)
User avatar
Joined: 30 Jul 2007
Posts: 114953
Lоcаtion: Киев (Kyiv, UA)
Age: 46
Name: Andrey
на рутрэкере выкладывал с винила оцифровку http://rutracker.org/forum/viewtopic.php?t=3955939


:thanx:

Image

mirror: F-Bit l Narod

Technical Thrash Metal довольно заунывный и с совершенно не трэшевым вокалом.
К сожалению, вышло как в той поговорке "третий сорт не брак" :pardon:

Рип с винила да, звучит неплохо, не очищен, да, частотки на месте. Но... щелчки иногда проскакивают такие, что ой, блин.
Особенно между сторонами винила =)

3/10

cue
REM GENRE "THRASH METAL"
REM SOURCE "KMA"
REM DATE "1990"
REM LABEL "Wild Rags"
REM COMMENT "Sound Forge"
PERFORMER "Arcane"
FILE "Arcane - 1990 - Destination Unknown.flac" WAVE
TRACK 01 AUDIO
TITLE "Recurrent Inception"
INDEX 01 00:00:00
TRACK 02 AUDIO
TITLE "Enshrouded Crypt"
INDEX 01 06:12:27
TRACK 03 AUDIO
TITLE "Infernal Domicile"
INDEX 01 10:47:61
TRACK 04 AUDIO
TITLE "Ancient Internecine"
INDEX 01 15:24:52
TRACK 05 AUDIO
TITLE "Life's Illusion"
INDEX 01 19:22:04
TRACK 06 AUDIO
TITLE "Impasse of Humanity"
INDEX 01 24:48:64
TRACK 07 AUDIO
TITLE "Mirror of Deception"
INDEX 01 29:49:36
TRACK 08 AUDIO
TITLE "Agamemnon"
INDEX 01 34:11:43


Image

_________________


Top
 Profile E-mail  
 
 
PostPosted: 06 Aug 2013 
Хиппей (support team)
User avatar
Joined: 30 Jul 2007
Posts: 114953
Lоcаtion: Киев (Kyiv, UA)
Age: 46
Name: Andrey
Блин...
Дим, я темы объединю, ага? :fingal:

_________________


Top
 Profile E-mail  
 
 
PostPosted: 06 Aug 2013 
Работнечег
User avatar
Joined: 28 Aug 2007
Posts: 6035
Lоcаtion: г. Москва
Age: 30
Name: Дима
Конечно)


Top
 Profile E-mail  
 
 
PostPosted: 07 Aug 2013 
Хиппей (support team)
User avatar
Joined: 30 Jul 2007
Posts: 114953
Lоcаtion: Киев (Kyiv, UA)
Age: 46
Name: Andrey
mirror: F-Bit l Narod

Только вот не помню, откель качал, рип не Димкин вроде. Давно у меня валялся. Куй не покажу, ибо архив некуды распаковать.

Ой.. а его и так можно достать :true:

log
Exact Audio Copy V0.99 prebeta 5 from 4. May 2009

EAC extraction logfile from 10. November 2012, 19:30

Arcane / Destination Unknown

Used drive : PIONEER DVD-RW DVR-116D Adapter: 0 ID: 0

Read mode : Secure
Utilize accurate stream : Yes
Defeat audio cache : Yes
Make use of C2 pointers : No

Read offset correction : 96
Overread into Lead-In and Lead-Out : No
Fill up missing offset samples with silence : Yes
Delete leading and trailing silent blocks : No
Null samples used in CRC calculations : Yes
Used interface : Native Win32 interface for Win NT & 2000

Used output format : User Defined Encoder
Selected bitrate : 32 kBit/s
Quality : High
Add ID3 tag : No
Command line compressor : C:\Program Files\Exact Audio Copy\Flac\flac.exe
Additional command line options : -6 -V %s


TOC of the extracted CD

Track | Start | Length | Start sector | End sector
---------------------------------------------------------
1 | 0:00.00 | 6:11.42 | 0 | 27866
2 | 6:11.42 | 4:33.68 | 27867 | 48409
3 | 10:45.35 | 4:34.42 | 48410 | 69001
4 | 15:20.02 | 3:45.73 | 69002 | 85949
5 | 19:06.00 | 5:15.47 | 85950 | 109621
6 | 24:21.47 | 5:02.18 | 109622 | 132289
7 | 29:23.65 | 4:21.62 | 132290 | 151926
8 | 33:45.52 | 5:10.55 | 151927 | 175231


Range status and errors

Selected range

Filename D:\Музыка\Lossless\Arcane - Destination Unknown (1990)\Arcane - Destination Unknown.wav

Peak level 76.4 %
Range quality 99.9 %
Copy CRC 4A35C259
Copy OK

No errors occurred


AccurateRip summary

Track 1 not present in database
Track 2 not present in database
Track 3 not present in database
Track 4 not present in database
Track 5 not present in database
Track 6 not present in database
Track 7 not present in database
Track 8 not present in database

None of the tracks are present in the AccurateRip database

End of status report

cue
REM GENRE "Speed/Thrash Metal"
REM DATE 1990
REM DISCID 67092008
REM COMMENT "ExactAudioCopy v0.99pb5"
PERFORMER "Arcane"
TITLE "Destination Unknown"
FILE "Arcane - Destination Unknown.flac" WAVE
TRACK 01 AUDIO
TITLE "Recurrent inception"
PERFORMER "Arcane"
INDEX 01 00:00:00
TRACK 02 AUDIO
TITLE "Enshrouded crypt"
PERFORMER "Arcane"
INDEX 00 06:07:17
INDEX 01 06:11:42
TRACK 03 AUDIO
TITLE "Internal domicile"
PERFORMER "Arcane"
INDEX 00 10:43:05
INDEX 01 10:45:35
TRACK 04 AUDIO
TITLE "Ancient internecine"
PERFORMER "Arcane"
INDEX 00 15:16:60
INDEX 01 15:20:02
TRACK 05 AUDIO
TITLE "Life's illusion"
PERFORMER "Arcane"
INDEX 00 19:02:10
INDEX 01 19:06:00
TRACK 06 AUDIO
TITLE "Impasse of humanity"
PERFORMER "Arcane"
INDEX 00 24:16:62
INDEX 01 24:21:47
TRACK 07 AUDIO
TITLE "Mirror of deception"
PERFORMER "Arcane"
INDEX 00 29:17:62
INDEX 01 29:23:65
TRACK 08 AUDIO
TITLE "Agamemnon"
PERFORMER "Arcane"
INDEX 00 33:40:65
INDEX 01 33:45:52

_________________


Top
 Profile E-mail  
 
 
PostPosted: 07 Aug 2013 
Хиппей (support team)
User avatar
Joined: 30 Jul 2007
Posts: 114953
Lоcаtion: Киев (Kyiv, UA)
Age: 46
Name: Andrey
Сверил. Лог один и тот же :shok:

_________________


Top
 Profile E-mail  
 
 
PostPosted: 07 Aug 2013 
Хиппей (support team)
User avatar
Joined: 30 Jul 2007
Posts: 114953
Lоcаtion: Киев (Kyiv, UA)
Age: 46
Name: Andrey
Эх, слепливаю обе темы в одну, не обессудьте за получившуюся кашу :pardon:

_________________


Top
 Profile E-mail  
 
 
PostPosted: 28 Sep 2015 
Генеральный thrasher
User avatar
Joined: 03 Oct 2008
Posts: 3741
Lоcаtion: Ханты-Мансийский АО
Age: 44
Name: Сергей
Прикупил компиляшку Worlds Colliding: The Anthology от Divebomb.Помимо миника Ambiguity и полнометражника Destination Unknown в антологию включены две демки.Посылка где-то на подходе.Рипчик нужон кому-нибудь?


Top
 Profile  
 
 
PostPosted: 28 Sep 2015 
Рарник и трушник
User avatar
Joined: 25 Dec 2009
Posts: 8793
Lоcаtion: Москва
Age: 54
Name: Виталий
Ну да, я бы хотел бы! Люблю эту команду. Заранее спасибо! :thanx:
Scatterbrain wrote:
Рип с винила да, звучит неплохо, не очищен, да, частотки на месте. Но... щелчки иногда проскакивают такие, что ой, блин.
Особенно между сторонами винила =)

Ну ты же любишь, када трещит и щёлкает, чего же жалуешься-то? :benya:


Top
 Profile  
 
 
PostPosted: 28 Sep 2015 
Генеральный thrasher
User avatar
Joined: 03 Oct 2008
Posts: 3741
Lоcаtion: Ханты-Мансийский АО
Age: 44
Name: Сергей
Сделаю,Виталий! ;)


Top
 Profile  
 
 
PostPosted: 28 Sep 2015 
Прокъмитолист
User avatar
Joined: 12 Aug 2007
Posts: 6627
Lоcаtion: Санктъ-Петербуркъ
Age: 52
Name: Олекъ
ну а если нужон оригинальный миник, то тоже имеецо (я на его ММТ релизил).

_________________
прокъметол - это музыко, от которово есть прок (ы)


Top
 Profile  
 
Display posts from previous:  Sort by  
Post new topic Reply to topic  [ 35 posts ]  Go to page Previous  1, 2

All times are UTC + 3 hours


Who is online

Users browsing this forum: No registered users and 2 guests


You cannot post new topics in this forum
You cannot reply to topics in this forum
You cannot edit your posts in this forum
You cannot delete your posts in this forum
You cannot post attachments in this forum

Search for:
Яндекс.Метрика
Powered by phpBB © 2000, 2002, 2005, 2007 phpBB Group